<?xml version="1.0" standalone="no"?>
<!DOCTYPE svg PUBLIC "-//W3C//DTD SVG 1.1//EN" "http://www.w3.org/Graphics/SVG/1.1/DTD/svg11.dtd" >
<svg xmlns="http://www.w3.org/2000/svg">
<metadata>Generated by IcoMoon</metadata>
<defs>
<font id="icomoon" horiz-adv-x="1024">
<font-face units-per-em="1024" ascent="960" descent="-64" />
<missing-glyph horiz-adv-x="1024" />
<glyph unicode="&#x20;" horiz-adv-x="512" d="" />
<glyph unicode="&#xe900;" glyph-name="logo" horiz-adv-x="1000" d="M445.196 939.764v-440.564h-440.564v219.672c0 121.905 98.987 220.891 220.891 220.891h219.672zM775.576 939.864l220.326-220.326-220.326-220.326-220.326 220.326 220.326 220.326zM444.952 388.998v-440.564h-219.672c-121.905 0-220.891 98.987-220.891 220.891v219.672h440.564zM995.718 388.998v-219.672c0-121.905-98.987-220.891-220.891-220.891h-219.672v440.564h440.564z" />
<glyph unicode="&#xe901;" glyph-name="person" d="M486.464 700.48c-16.512-4.32-28.832-11.712-42.656-25.568-18.496-18.528-27.328-40-27.36-66.56-0.032-25.6 7.904-46.336 24.736-64.512 19.808-21.376 42.272-31.296 70.816-31.296s51.008 9.92 70.816 31.296c20.928 22.624 29.344 54.048 22.88 85.408-4.768 23.232-24.128 49.44-46.016 62.336-19.904 11.744-48.864 15.264-73.216 8.896zM539.872 665.024c12.512-6.176 23.488-17.184 30.144-30.304 3.744-7.36 4.288-10.56 4.288-26.304 0-15.68-0.544-19.072-4.416-27.296-11.936-25.472-40.192-40.192-68.32-35.68-20.256 3.264-38.784 17.216-47.456 35.68-3.872 8.224-4.416 11.616-4.416 27.296 0 15.744 0.544 18.944 4.288 26.272 8.512 16.672 22.592 28.928 39.744 34.496 4.416 1.472 12.512 2.144 21.088 1.824 11.584-0.416 15.808-1.44 25.056-5.984zM484.128 446.336c-70.432-12.768-122.88-68.416-130.72-138.656-2.272-20.544-2.4-65.088-0.192-72.8 2.176-7.552 6.176-10.336 15.072-10.4 5.44-0.032 8.352 0.96 11.296 3.904 3.872 3.872 4 4.992 4.928 43.968 0.512 21.984 1.856 43.808 2.912 48.512 3.104 13.376 15.904 38.176 26.016 50.336 15.040 18.112 36.128 32.288 58.464 39.296 16.928 5.312 49.696 6.56 69.088 2.624 33.952-6.88 63.808-28.288 81.92-58.72 13.824-23.328 17.088-40.096 17.088-88.128 0-33.248 0.032-33.504 4.192-37.664 5.44-5.44 17.28-5.856 22.72-0.768 5.344 4.96 5.984 11.552 5.056 50.784-0.992 41.248-3.648 54.816-15.616 79.712-8.992 18.72-16.16 28.832-31.296 44.16-19.424 19.648-38.976 31.008-68.448 39.776-12.192 3.616-19.040 4.48-39.488 4.96-13.6 0.32-28.448-0.096-32.992-0.896z" />
<glyph unicode="&#xe902;" glyph-name="persons" d="M427.52 702.016c-16-3.040-32.96-12.704-47.072-26.848-15.392-15.424-22.624-28.864-26.72-49.6-9.44-47.968 20.704-96.384 68.64-110.24 13.472-3.872 37.792-3.872 51.264 0 37.056 10.688 64.704 42.88 69.504 80.832 3.84 30.4-5.344 56.704-27.584 79.008-24 24.064-54.144 33.248-88.032 26.848zM579.328 699.808c-5.44-5.44-5.888-17.984-0.864-23.008 3.2-3.2 5.728-3.904 22.272-6.048 17.664-2.272 36.896-16.992 45.728-34.976 4.128-8.448 4.64-11.296 4.64-27.36 0-15.68-0.544-19.072-4.416-27.296-5.504-11.744-18.464-24.896-29.696-30.112-8.48-3.936-11.104-4.608-26.944-6.624-10.656-1.344-14.912-5.824-14.912-15.712 0-11.2 5.344-15.808 18.336-15.808 22.912 0 43.584 9.088 62.112 27.296 20.032 19.744 28.8 40.448 28.8 68.256 0 27.2-8.704 48.064-28.128 67.488-18.272 18.272-40.352 28-63.68 28.064-7.36 0.032-9.824-0.768-13.248-4.16zM475.328 665.504c40.512-20.48 48.704-74.464 15.808-104.032-15.168-13.632-32.704-18.944-53.152-16.096-18.912 2.656-38.176 16.352-46.816 33.376-14.272 28.16-5.12 63.712 21.152 81.888 12.48 8.64 21.152 10.976 38.4 10.4 12.256-0.416 16.288-1.312 24.608-5.536zM421.248 446.368c-62.144-11.36-110.624-57.28-128.032-121.248-2.88-10.56-3.648-19.68-4.32-52.384l-0.832-39.584 4.384-4.352c6.176-6.176 17.6-6.176 23.392 0.032 4.064 4.288 4.16 5.184 5.216 43.072 0.768 28.416 1.824 41.44 3.936 48.96 6.624 23.648 22.528 48.8 41.376 65.408 12.544 11.072 37.056 23.52 52.608 26.752 15.36 3.2 42.752 3.2 58.048 0 14.912-3.136 36.8-13.792 49.504-24.128 12.8-10.464 28.384-30.304 35.712-45.504 10.080-20.992 11.488-28.832 12.704-71.488 1.088-37.824 1.216-38.848 5.216-43.104 5.792-6.176 17.248-6.176 23.392 0l4.384 4.352-0.832 39.584c-0.928 43.456-2.496 52.768-13.248 77.984-15.168 35.552-45.44 67.296-78.816 82.72-21.824 10.080-35.232 13.056-61.92 13.76-13.152 0.352-27.488-0.032-31.872-0.832zM594.048 443.488c-4.832-6.144-4.704-16.192 0.288-21.792 3.392-3.808 5.92-4.544 21.44-6.080 48.544-4.8 86.144-31.296 106.912-75.296 10.080-21.408 11.552-29.408 12.8-69.824 0.608-20.16 1.76-38.048 2.496-39.712 3.488-7.616 19.072-8.928 25.824-2.176 4.16 4.16 4.192 4.544 4.192 35.616 0 45.12-3.968 65.408-18.368 94.176-8.672 17.312-17.632 29.824-30.624 42.848-28.544 28.512-70.656 46.752-108 46.752-12.48 0-13.664-0.32-16.96-4.512z" />
<glyph unicode="&#xe903;" glyph-name="app" d="M327.68 686.784c-12.608-2.208-24.672-8.672-35.072-18.816-10.976-10.72-17.152-22.944-19.648-38.976-2.656-17.216-1.184-83.712 2.080-93.088 7.616-21.888 23.392-37.504 45.824-45.344 7.904-2.784 73.824-4.16 89.984-1.92 32.992 4.64 55.872 27.392 60.448 60.224 2.464 17.472 0.864 82.208-2.24 91.136-7.584 21.856-23.296 37.408-45.792 45.344-7.52 2.656-82.176 3.776-95.584 1.44zM645.6 686.752c-9.12-2.656-9.792-5.6-10.432-45.472l-0.576-36.256-33.568-0.096c-39.552-0.128-44.512-1.216-47.552-10.464-2.4-7.328-0.576-15.904 4.128-19.456 2.336-1.792 11.584-2.336 40-2.368l36.992-0.064 0.576-37.12c0.384-25.792 1.216-38.272 2.72-40.864 4.352-7.616 21.504-8.256 27.008-0.992 1.76 2.336 2.304 11.744 2.368 41.024l0.032 37.952 37.984 0.064c29.248 0.032 38.688 0.576 41.024 2.368 4.704 3.552 6.496 12.128 4.128 19.456-3.040 9.28-7.936 10.336-48.576 10.464l-34.56 0.096v37.216c0 35.104-0.192 37.44-3.456 40.96-1.92 2.048-4.544 3.744-5.856 3.744-1.28 0-3.36 0.288-4.608 0.672s-4.768 0-7.776-0.864zM421.472 651.104c4.864-2.752 9.472-7.296 12.8-12.672l5.184-8.416v-83.872l-4.736-8.064c-3.072-5.248-7.552-9.728-12.8-12.8l-8.064-4.736h-83.872l-8.416 5.184c-5.376 3.328-9.92 7.936-12.672 12.8-4.224 7.552-4.256 8-4.256 49.408 0 41.472 0.032 41.888 4.256 49.344 2.368 4.16 6.24 8.992 8.64 10.752 9.984 7.392 15.808 8.16 57.088 7.744 38.336-0.416 39.424-0.512 46.848-4.672zM332.8 407.616c-9.056-1.408-19.872-4.768-25.6-8-8.672-4.864-21.888-17.952-26.112-25.856-7.52-14.048-8.384-19.328-9.248-57.28-1.248-55.008 1.984-69.184 20.192-87.872 10.72-10.976 22.944-17.152 38.976-19.648 17.216-2.656 83.712-1.184 93.088 2.080 21.792 7.584 37.536 23.328 44.928 44.96 3.104 9.024 4.704 73.888 2.304 91.136-4.512 32.096-27.424 55.456-58.752 60-10.24 1.472-70.976 1.856-79.776 0.48zM609.568 407.072c-21.024-3.264-42.048-19.168-50.912-38.528-2.336-5.152-5.056-14.944-6.016-21.696-2.4-17.184-0.768-82.016 2.304-90.848 7.584-21.856 23.36-37.472 45.792-45.344 8.48-2.976 76-4.224 92.256-1.696 16.032 2.496 28.256 8.672 38.976 19.648 10.976 11.264 16.672 22.752 19.072 38.4 2.656 17.248 1.152 83.744-2.080 93.088-7.584 21.76-23.2 37.376-44.96 44.96-8 2.816-79.584 4.32-94.432 2.016zM421.92 370.72c5.248-3.072 9.728-7.552 12.8-12.8l4.736-8.064v-83.616l-4.736-8.064c-3.072-5.216-7.552-9.728-12.8-12.8l-8.064-4.736h-41.792c-41.44 0-41.888 0.032-49.44 4.256-8.576 4.832-14.56 12.672-17.248 22.624-1.12 4.16-1.6 21.376-1.28 44.544 0.512 35.456 0.768 38.24 4.416 45.056 4.192 7.808 14.048 15.36 22.976 17.6 3.072 0.768 22.848 1.248 43.968 1.056l38.4-0.32 8.064-4.736zM702.432 370.272c5.376-3.328 9.92-7.936 12.672-12.8 4.128-7.36 4.288-8.736 4.8-45.408 0.32-23.168-0.16-40.384-1.28-44.544-2.688-9.952-8.672-17.792-17.248-22.624-7.552-4.224-8-4.256-49.44-4.256-41.408 0-41.856 0.032-49.408 4.256-4.864 2.752-9.472 7.296-12.8 12.672l-5.184 8.416v83.872l4.672 7.968c4.864 8.32 13.248 14.656 22.368 16.928 2.976 0.736 22.72 1.216 43.904 1.024l38.56-0.32 8.384-5.184z" />
<glyph unicode="&#xe904;" glyph-name="add-rounded" d="M423.104 622.176c-37.696-6.912-69.408-22.56-95.232-47.040-17.088-16.128-27.904-30.816-37.824-51.2-14.752-30.304-20.448-61.472-16.992-92.864 2.496-22.752 7.072-38.592 16.992-59.008 9.92-20.384 20.736-35.072 37.824-51.2 21.952-20.8 46.496-34.4 77.696-43.072 15.232-4.224 19.52-4.672 44.992-4.672 25.376 0 29.792 0.48 44.8 4.64l16.64 4.608 16.64-4.608c15.008-4.16 19.424-4.64 44.8-4.64 25.472 0 29.792 0.448 45.216 4.704 9.408 2.592 24.768 8.48 34.144 13.056 95.68 46.688 128.256 165.376 69.696 253.856-8.64 13.056-27.712 33.088-41.536 43.616-14.912 11.36-41.472 24.064-62.304 29.824-15.424 4.256-19.744 4.704-45.216 4.704-25.376 0-29.792-0.448-44.8-4.64l-16.672-4.608-15.776 4.352c-12.704 3.52-20.544 4.48-40.512 4.992-13.6 0.352-28.256 0-32.576-0.8zM453.152 577.376c-19.2-17.984-29.888-32.192-40.224-53.44-14.752-30.304-20.448-61.472-16.992-92.864 2.496-22.752 7.072-38.592 16.992-59.008 10.336-21.248 21.024-35.456 40.224-53.44l14.976-13.984h-17.152c-41.44 0-75.648 13.952-104.672 42.656-19.52 19.328-32.128 41.472-38.496 67.648-4.16 17.12-3.808 52 0.768 68.992 11.584 43.36 44.704 80.544 86.752 97.376 17.632 7.072 32.064 9.696 54.208 9.888l18.592 0.16-14.976-13.984zM603.040 588.896c48.736-9.312 92.832-47.264 108.8-93.632 10.208-29.536 10.208-64.992 0-94.528-15.968-46.368-60.064-84.32-108.8-93.632-25.344-4.864-65.184-1.888-77.952 5.792-2.976 1.792-8.128 3.776-11.488 4.352-8.768 1.568-31.232 16.896-45.184 30.848-35.52 35.552-49.28 86.848-36.608 136.608 12.96 50.848 58.336 93.44 110.912 104.096 15.040 3.040 44.704 3.104 60.32 0.096zM565.76 543.296c-7.392-4.032-7.68-5.664-7.68-43.584v-36.352h-36.8c-21.088 0-38.176-0.736-39.968-1.696-1.76-0.928-4.064-4.384-5.152-7.68-2.464-7.456 0.224-16.96 5.696-20.064 2.528-1.472 15.168-2.304 39.968-2.72l36.256-0.544v-35.712c0-33.248 0.224-35.904 3.36-39.072 6.016-6.016 15.616-6.56 22.752-1.344 4.864 3.552 6.24 13.6 6.272 45.952l0.032 30.144 35.424 0.608c24.352 0.384 36.576 1.248 39.168 2.72 7.808 4.448 8.16 23.616 0.544 27.68-1.888 1.024-18.144 1.728-39.008 1.728h-35.808l-0.672 35.424c-0.384 19.456-1.312 36.768-2.080 38.464-3.008 6.56-15.264 9.92-22.304 6.048z" />
<glyph unicode="&#xe905;" glyph-name="stack" d="M315.616 638.528c-16.096-4.352-29.984-15.488-37.376-30.016-6.464-12.64-7.072-25.664-6.496-140.992 0.48-99.296 0.832-111.584 3.424-118.112 4.48-11.328 12.448-21.728 20.832-27.296 7.712-5.088 110.56-53.696 129.824-61.312 22.24-8.832 45.472-3.968 62.528 13.12l9.696 9.664 27.2-12.544c30.976-14.304 42.944-17.312 57.056-14.272 13.44 2.848 22.304 7.776 31.136 17.216 4.352 4.672 8.384 8.48 8.96 8.48 0.544 0 12.704-5.408 27.008-12 16.416-7.616 29.792-12.64 36.352-13.696 25.632-4.128 52.192 10.976 61.952 35.168l4.064 10.144v237.216l-4 9.952c-2.624 6.496-7.104 13.024-12.896 18.784-8.096 8.064-14.4 11.392-72.512 38.336-66.752 30.944-79.328 35.552-92.224 33.792-11.904-1.632-28-9.984-36.704-19.104l-7.808-8.16-15.776 7.36c-34.56 16.064-43.584 19.2-55.616 19.296-16.32 0.128-29.024-5.184-41.408-17.28l-9.824-9.568-25.056 11.584c-35.296 16.32-45.728 18.72-62.336 14.24zM378.88 588.416c22.048-10.336 48.928-22.848 59.744-27.808 23.136-10.656 28.192-13.92 31.584-20.512 3.616-7.008 3.808-229.088 0.224-237.728-4.16-9.952-17.536-16-28.704-12.992-3.552 0.928-33.568 14.368-66.656 29.824-41.632 19.424-61.6 29.632-64.736 33.088-3.232 3.552-4.896 7.648-5.664 14.080-0.608 5.024-0.864 57.472-0.576 116.608 0.512 103.424 0.672 107.744 3.904 113.088 4.544 7.488 15.168 12.768 23.936 11.84 3.968-0.384 23.68-8.576 46.944-19.488zM504.32 587.104c22.528-10.496 50.048-23.232 61.184-28.32 21.632-9.888 29.504-16.096 31.040-24.48 0.512-2.88 0.704-55.968 0.448-117.952-0.48-104.32-0.736-113.056-3.52-117.312-3.776-5.728-14.72-11.456-21.952-11.456-3.264 0-17.824 5.696-35.904 14.048l-30.432 14.080v110.208c0 121.056 0.128 119.392-10.4 135.264-6.752 10.176-14.464 15.488-39.104 26.848-10.784 4.992-20.256 9.6-20.992 10.208-1.824 1.536 6.816 7.072 13.28 8.544 8.608 1.952 13.856 0.128 56.352-19.68zM645.12 578.912c33.312-15.52 63.136-30.4 66.24-33.056 3.648-3.104 6.24-7.264 7.232-11.68 2.016-8.832 2.016-218.080 0-226.752-2.848-12.352-17.184-21.6-29.28-18.944-2.784 0.608-17.12 6.752-31.872 13.632l-26.816 12.544-1.728 226.432-5.632 11.488c-7.552 15.264-15.744 21.888-43.424 34.912-12.448 5.856-22.56 11.232-22.464 11.936 0.32 3.2 15.392 9.184 21.184 8.448 3.296-0.416 33.248-13.44 66.56-28.96z" />
<glyph unicode="&#xe906;" glyph-name="messages" d="M478.72 687.040c-12.384-3.008-23.904-12.768-29.344-24.864-2.784-6.176-3.136-13.984-3.616-82.752-0.352-50.496 0.128-79.616 1.376-86.88 2.368-13.632 9.248-24.032 20.128-30.432l8.032-4.736 179.2-0.96 75.744-75.456 7.2 0.96c3.968 0.544 8.768 2.592 10.752 4.544 3.584 3.616 3.584 3.68 3.584 137.152v133.536l-4.352 8.48c-5.44 10.592-15.904 18.72-27.232 21.152-9.856 2.112-232.864 2.368-241.472 0.256zM716.416 653.568l3.808-2.656v-213.952l-24.32 24.192c-13.376 13.344-26.496 25.024-29.12 26.016-3.136 1.152-36.032 1.792-94.272 1.792h-89.44l-2.656 4.032c-2.304 3.552-2.592 13.792-2.176 81.216 0.448 74.112 0.608 77.248 3.808 79.584 2.752 2.048 21.504 2.432 116.928 2.432 100.096 0 114.112-0.32 117.44-2.656zM304.64 512.96c-12.384-3.008-23.904-12.768-29.344-24.864-2.848-6.336-3.136-15.744-3.616-131.392-0.288-68.544-0.032-128 0.576-132.128 1.44-9.728 8.512-17.216 16.32-17.216 4.896 0 9.696 4.16 43.296 37.536l37.792 37.568h86.112c54.048 0 88.448 0.672 92.448 1.76 9.504 2.656 20.224 11.712 25.12 21.248 4.064 7.904 4.416 10.336 4.96 37.408 0.736 35.040-0.544 41.056-9.568 44.832-8.16 3.392-17.728 0.864-20.608-5.472-1.28-2.784-1.984-14.848-1.984-33.056 0-25.6-0.352-28.96-3.136-31.488-2.816-2.528-11.68-2.816-92.032-2.816-58.848 0-90.56-0.608-93.728-1.824-2.624-0.992-15.744-12.704-29.152-25.984l-24.384-24.16 0.448 107.2c0.48 103.84 0.576 107.264 3.808 109.6 2.56 1.856 10.048 2.432 32.928 2.432 29.152 0 29.664 0.064 33.792 4.192 3.168 3.168 4.192 5.952 4.128 11.52-0.064 8.864-2.816 12.896-10.4 15.072-6.56 1.888-56.096 1.92-63.776 0.032z" />
<glyph unicode="&#xe907;" glyph-name="settings" d="M494.688 685.472c-11.712-3.872-23.776-12.288-29.472-20.544-2.336-3.392-6.56-11.904-9.408-18.944-5.76-14.336-10.592-19.488-20.704-22.24-8-2.144-10.24-1.664-26.368 5.696-22.848 10.4-47.424 6.144-65.408-11.296-9.088-8.8-14.752-19.552-17.152-32.448-2.24-12.096-0.448-22.624 6.592-38.624 5.984-13.632 6.24-17.184 1.888-26.752-3.744-8.224-7.936-11.52-19.712-15.36-26.4-8.704-42.4-30.208-42.304-56.96 0.032-14.432 3.232-24.384 11.2-34.976 7.616-10.112 13.376-14.24 28.96-20.64 24.352-10.016 29.664-21.376 20.128-43.072-7.2-16.384-8.992-26.848-6.752-39.040 4.544-24.48 22.784-43.008 47.488-48.16 12.096-2.528 21.824-0.96 37.92 6.080 14.976 6.56 18.368 6.88 28.064 2.464 7.84-3.552 12.8-9.696 16.032-19.776 3.616-11.36 7.872-18.432 15.648-25.856 26.656-25.504 69.344-21.344 89.12 8.672 3.136 4.768 6.944 12.512 8.512 17.248 3.84 11.776 7.136 15.968 15.36 19.712 9.568 4.32 13.12 4.096 26.624-1.824 17.12-7.52 26.944-9.248 38.816-6.784 13.216 2.72 23.744 8.32 32.384 17.28 17.44 17.984 21.696 42.656 11.2 65.024-7.552 16.096-8.288 21.504-4.224 30.656 3.872 8.8 9.632 13.312 22.016 17.376 42.656 13.984 54.976 66.88 22.848 98.144-5.024 4.928-11.904 9.568-16.704 11.296-22.464 8.128-28.096 13.056-30.368 26.592-0.896 5.216 0.064 9.056 5.024 20 7.968 17.664 9.28 29.824 4.704 44.256-6.080 19.2-20.768 33.888-39.968 39.968-14.4 4.544-26.464 3.424-42.56-3.968-15.072-6.976-24.224-7.2-33.824-0.832-4.64 3.072-7.328 6.624-9.472 12.48-5.888 16.32-10.144 23.712-18.176 31.552-14.688 14.336-38.688 19.968-57.952 13.6zM521.856 653.568c9.184-3.84 13.568-8.672 16.768-18.496 4.576-13.952 8.384-20.32 16.864-28.16 8.736-8.032 21.728-14.432 32.704-16.16 9.472-1.44 22.112 1.152 36.736 7.552 15.904 6.976 24.192 6.112 33.856-3.52 9.632-9.664 10.592-18.432 3.68-33.248-6.816-14.592-9.184-27.456-7.072-38.624 4.608-24.288 19.232-40.448 43.84-48.384 16.832-5.408 24.608-20.832 18.368-36.416-3.616-9.056-8.384-12.832-21.792-17.312-20.096-6.688-35.488-24.096-39.904-45.12-2.752-13.088-0.928-24.448 6.496-40.544 4.096-8.896 5.12-13.056 4.384-17.728-1.536-9.44-7.328-17.248-15.84-21.376-8.896-4.288-13.632-3.84-27.36 2.656-14.336 6.784-24.608 8.576-36.576 6.336-22.368-4.16-38.56-17.952-46.976-40.032-5.568-14.528-11.136-20.8-20.928-23.424-15.168-4.096-28.16 3.872-33.44 20.416-6.656 20.768-22.272 36.128-42.624 41.888-12.96 3.68-25.6 2.336-39.648-4.224-19.104-8.928-27.648-8.448-37.76 2.048-10.624 11.008-10.944 18.624-1.632 38.304 4.608 9.728 5.472 13.472 5.376 23.52-0.224 28.256-14.176 46.848-43.488 58.048-12.928 4.96-17.696 9.568-20.448 19.84-2.176 8.064 0.16 18.24 5.664 24.512 2.080 2.368 10.24 6.976 18.176 10.24 12.864 5.312 19.904 9.952 27.040 17.92 1.248 1.408 4.736 7.552 7.712 13.664 4.768 9.664 5.44 12.768 5.312 24.064-0.128 10.752-1.056 14.88-5.472 24.352-7.648 16.32-8.288 21.568-3.808 30.816 4.064 8.416 11.904 14.272 21.056 15.744 4.384 0.736 9.248-0.608 20.128-5.472 12.256-5.504 16.064-6.432 26.272-6.368 19.712 0.096 39.264 9.632 49.184 23.936 2.464 3.552 6.048 11.008 7.968 16.576 4.768 13.856 7.648 17.76 15.936 21.504 8.704 3.968 13.056 4.096 21.248 0.672zM490.656 536.16c-34.368-8.928-60.768-36.64-67.488-70.912-8.512-43.2 16.768-87.264 59.040-102.944 14.624-5.44 44.96-5.44 59.584 0 25.408 9.408 46.496 30.56 55.968 56.096 5.376 14.432 5.312 44.864-0.064 59.392-9.44 25.472-30.88 46.816-56.096 55.84-12.416 4.448-38.56 5.728-50.944 2.528zM536.768 500.8c10.816-5.28 22.656-17.088 28.128-28.064 3.648-7.296 4.288-10.848 4.288-24.736 0-19.2-3.648-28.384-16.224-40.96s-21.76-16.224-40.96-16.224c-13.888 0-17.44 0.64-24.736 4.288-10.912 5.44-22.784 17.312-28 27.968-4.928 10.112-6.592 27.84-3.712 39.68 4.224 17.312 22.496 36.544 39.392 41.408 10.656 3.072 32.224 1.344 41.824-3.36z" />
<glyph unicode="&#xe908;" glyph-name="controls" d="M555.872 686.88c-21.344-3.616-43.328-20.256-52.608-39.904-2.72-5.728-4.928-11.328-4.928-12.48 0-1.632-24.224-2.208-109.184-2.56l-109.152-0.48-3.744-3.744c-5.792-5.76-5.312-18.496 0.896-23.808l4.64-4h108.288c85.472 0 108.256-0.448 108.256-2.144 0-5.344 10.56-23.552 18.112-31.264 11.264-11.488 22.272-17.568 37.376-20.64 35.040-7.136 71.712 13.984 82.048 47.2l1.888 5.984 53.12 0.864c51.872 0.832 53.216 0.928 56.864 4.576 5.248 5.248 5.248 17.984 0 23.232-3.648 3.68-4.992 3.776-56.736 4.608l-53.024 0.864-2.144 6.24c-5.824 16.96-21.44 34.336-37.28 41.568-7.68 3.488-27.584 8-32.8 7.424-0.928-0.096-5.376-0.8-9.888-1.536zM588.768 649.696c25.472-15.584 24.384-55.296-1.888-68.672-20-10.208-44.384-2.464-54.464 17.28-4.128 8.096-4.48 24.608-0.704 33.632 9.056 21.728 36.576 30.272 57.056 17.76zM379.648 517.152c-21.888-6.912-41.888-26.208-47.744-46.112l-2.048-6.816-25.408-0.864c-13.984-0.48-26.336-1.472-27.488-2.208-6.56-4.256-5.376-23.232 1.728-27.136 2.272-1.28 13.376-2.368 28.096-2.784 21.024-0.576 24.32-1.056 24.32-3.456 0-10.176 20.832-36.128 34.656-43.2 23.232-11.84 51.136-10.912 72.192 2.432 13.376 8.48 31.296 32.32 31.36 41.728 0.032 1.632 30.368 2.208 136.128 2.56 105.728 0.384 136.96 0.96 139.872 2.656 7.776 4.448 8.16 23.616 0.544 27.68-2.112 1.12-50.72 1.728-139.072 1.728-127.872 0-135.904 0.16-136.832 2.976-10.592 32.768-38.208 53.6-70.432 53.184-7.136-0.096-16.064-1.152-19.872-2.368zM421.824 481.184c4.032-2.816 9.568-8.768 12.32-13.184 4.256-6.912 4.96-9.792 4.96-20s-0.704-13.088-4.96-20c-7.52-12.128-17.088-18.080-30.368-18.944-6.016-0.384-13.728 0.256-17.184 1.376-14.176 4.704-26.464 22.112-26.464 37.568 0 9.184 6.048 22.848 12.992 29.344 8.128 7.616 15.488 10.016 29.12 9.472 10.464-0.416 13.344-1.216 19.584-5.632zM638.464 350.592c-24.16-4.768-47.232-25.056-54.688-48.096l-2.080-6.4h-299.904l-4.64-4c-6.208-5.312-6.688-18.048-0.896-23.808l3.744-3.744 301.728-0.928 1.984-5.984c5.664-17.216 21.824-35.232 38.368-42.816 27.136-12.416 59.648-6.432 80.832 14.912 8.928 8.992 15.712 20.032 17.888 29.056 1.024 4.192 1.856 4.544 12.224 5.216 14.368 0.896 18.464 4.48 18.464 16.064 0 11.488-5.472 16.032-19.392 16.032-9.632 0-10.176 0.224-11.232 4.704-3.552 14.752-18.112 32.896-33.792 42.048-8.096 4.768-26.848 9.632-35.968 9.376-2.816-0.096-8.512-0.832-12.64-1.632zM668.16 315.936c15.52-7.328 23.040-19.104 23.040-36.032 0-23.264-15.84-38.976-39.36-39.072-17.696-0.064-30.272 8.672-36.704 25.44-12.448 32.608 21.632 64.512 53.024 49.664z" />
<glyph unicode="&#xe909;" glyph-name="share" d="M339.616 635.008c-23.68-6.592-46.048-24.992-56.896-46.848-3.424-6.944-6.24-14.848-6.24-17.6 0-9.696 14.912-18.144 23.712-13.408 1.984 1.056 6.208 7.072 9.408 13.376 7.264 14.4 16.096 23.328 29.184 29.6l10.24 4.896h162.304c118.080 0 163.872-0.544 168.096-1.984 16.256-5.504 32.064-21.536 37.632-38.144 3.36-9.984 3.36-223.808 0-233.792-5.568-16.576-20.832-32.064-37.792-38.4-4.192-1.568-19.648-2.432-51.2-2.88-24.896-0.384-47.008-1.056-49.184-1.504-6.016-1.312-9.728-11.52-7.264-19.84 3.168-10.592 4.224-10.784 56.448-10.752 43.488 0.032 47.808 0.32 58.944 3.808 28.672 8.928 51.904 32.16 61.024 61.024 3.712 11.808 3.744 13.12 3.744 125.44s-0.032 113.632-3.744 125.44c-8.992 28.448-32.384 52.128-59.872 60.608-10.656 3.296-15.968 3.392-175.904 3.232-126.304-0.096-166.752-0.64-172.64-2.272zM277.984 485.792c-5.696-4.544-7.328-12.352-4.128-20 3.072-7.328 6.304-8.544 26.528-9.76 58.72-3.584 116.384-39.168 145.28-89.664 15.104-26.432 22.496-51.232 24.736-83.040 1.472-20.672 4.224-24.768 16.768-24.768 14.592 0 17.664 7.616 14.624 35.904-5.472 50.336-24.896 92.576-58.784 127.744-38.528 40-89.216 63.392-143.488 66.24-15.488 0.832-17.472 0.576-21.536-2.656zM280.544 387.616c-9.792-4.448-11.392-19.936-2.752-26.72 2.496-1.952 6.88-3.36 10.624-3.36 29.888 0 60.896-19.52 74.368-46.848 4.608-9.344 6.336-15.616 7.808-28.224 2.304-20.096 4.992-23.904 16.832-23.904 6.176 0 8.768 0.896 11.84 4.16 3.36 3.584 3.872 5.824 3.712 16.704-0.736 48.032-37.312 93.824-84.704 106.048-15.872 4.096-31.488 4.992-37.728 2.144zM277.824 287.488c-7.040-4.128-6.816-23.392 0.32-27.2 6.144-3.296 17.888-2.080 21.92 2.208 5.312 5.664 5.184 17.984-0.224 23.072-4.288 4.032-16.544 5.088-22.016 1.92z" />
<glyph unicode="&#xe90a;" glyph-name="tv" d="M387.84 683.904c-6.24-5.792-7.872-10.528-5.664-16.32 2.336-6.144 120.992-127.296 125.856-128.512 2.176-0.544 5.76-0.544 7.936 0 4.928 1.248 123.552 122.496 125.92 128.672 2.176 5.792-0.736 13.024-7.072 17.536-10.56 7.52-9.92 8-68.64-51.648l-54.176-55.072-54.176 55.040c-48.416 49.184-54.784 55.072-59.552 55.040-3.52 0-7.136-1.664-10.432-4.736zM346.944 518.944c-17.44-5.504-30.016-16.576-37.856-33.312l-4.448-9.472-0.544-105.824c-0.576-110.208-0.192-117.248 6.688-130.848 5.056-9.984 19.488-23.008 30.304-27.392l9.632-3.872 155.072-0.48c101.216-0.32 158.368 0.128 164.576 1.28 13.024 2.4 22.208 7.168 31.328 16.288s14.464 19.136 16.8 31.52c2.4 12.704 2.272 202.848-0.16 215.968-1.024 5.536-3.36 13.056-5.216 16.704-4.992 9.76-17.376 21.28-28.416 26.464l-9.728 4.576-160.416 0.32c-129.28 0.256-161.824-0.096-167.616-1.92zM674.144 485.12c3.104-2.112 7.264-6.016 9.216-8.672 3.52-4.736 3.584-6.304 4.032-109.728 0.512-116.992 0.96-112.16-11.232-121.472l-6.016-4.608h-158.304c-157.216 0-158.336 0.032-163.008 3.52-2.592 1.92-6.304 5.632-8.256 8.224-3.456 4.64-3.52 6.688-3.968 110.528-0.48 105.248-0.448 105.856 3.168 112.288 1.984 3.552 6.432 8.096 9.856 10.080 6.208 3.584 6.592 3.616 162.528 3.648l156.352 0.032 5.632-3.84z" />
<glyph unicode="&#xe90b;" glyph-name="controller" d="M313.76 588.992c-17.344-6.208-29.472-17.12-37.12-33.408l-4.416-9.44v-194.56l3.872-9.664c4.96-12.192 18.368-26.048 31.008-31.968l9.472-4.448h390.848l9.824 4.608c12.672 5.92 25.6 19.392 30.656 31.872 3.872 9.568 3.872 9.728 3.872 105.152 0 71.072-0.544 97.376-2.112 102.496-4.96 16.352-18.464 30.464-35.968 37.664l-9.696 3.968-192-0.032c-153.6 0-193.248-0.48-198.24-2.24zM706.592 555.104c3.104-2.112 7.232-6.016 9.184-8.672 3.52-4.736 3.584-6.112 3.584-98.432s-0.064-93.696-3.584-98.432c-1.952-2.656-6.080-6.56-9.184-8.672l-5.664-3.84h-377.856l-5.664 3.84c-3.104 2.112-7.232 6.016-9.184 8.672-3.52 4.736-3.584 6.112-3.584 98.432s0.064 93.696 3.584 98.432c1.952 2.656 6.080 6.56 9.184 8.672l5.664 3.84h377.856l5.664-3.84zM413.408 504.896c-4.832-1.952-7.232-10.624-7.232-26.080v-15.456h-17.984c-16.832 0-18.272-0.256-22.176-4.192-3.040-3.040-4.192-6.048-4.192-10.912 0-12.8 8.096-17.216 31.84-17.28l12.192-0.032 0.608-17.024c0.64-18.528 1.824-21.12 10.976-23.744 6.944-1.984 16.256 1.248 18.976 6.624 1.216 2.464 2.144 10.624 2.176 19.2l0.032 14.944 12.352 0.032c23.904 0.064 32 4.448 32 17.28 0 4.864-1.152 7.872-4.192 10.912-3.904 3.936-5.344 4.192-22.176 4.192h-17.984v15.456c0 16.032-2.4 24.096-7.776 26.144-3.2 1.248-14.304 1.184-17.44-0.064zM570.656 483.552c-6.72-3.264-9.408-14.080-5.568-22.496 3.872-8.48 17.12-10.528 24.896-3.808 3.968 3.424 4.8 5.472 4.8 12.096s-0.832 8.672-4.8 12.096c-5.088 4.384-12.896 5.216-19.328 2.112zM639.072 441.248c-5.792-2.336-8.16-6.688-8.16-14.944 0-6.432 0.832-8.576 4.64-11.84 10.304-8.864 26.464-2.272 26.592 10.848 0.128 13.312-10.848 20.896-23.072 15.936z" />
<glyph unicode="&#xe90c;" glyph-name="home" d="M391.104 573.856c-63.456-63.36-116-117.152-117.28-120.064-2.944-6.816-0.48-16.832 4.864-19.744 2.080-1.12 12.768-2.4 23.776-2.784l19.968-0.736 0.512-87.264 0.48-87.264 4.448-9.504c8.992-19.168 28.896-33.952 50.464-37.504 13.92-2.272 254.272-2.112 268.48 0.192 14.944 2.4 24.608 7.424 35.936 18.656 10.624 10.528 16.096 20.48 18.656 33.984 1.024 5.376 1.728 42.112 1.728 88.928v79.808l18.688 0.64c15.648 0.544 19.456 1.216 23.456 4.192 5.632 4.192 8.256 10.496 6.816 16.224-0.608 2.304-51.456 54.4-117.632 120.544-109.408 109.344-116.896 116.48-122.464 116.48-5.536 0-12.992-7.072-120.896-114.784zM605.024 555.52l92.128-92.16h-9.504c-7.68 0-10.208-0.736-13.152-3.904-3.648-3.872-3.68-4.416-4.16-100.256l-0.48-96.384-4.704-6.944c-2.592-3.84-7.968-8.8-11.968-11.072-6.304-3.616-9.824-4.192-28.128-4.736l-20.896-0.64-0.032 65.472c-0.032 36-0.736 70.4-1.632 76.416-3.36 23.36-19.904 44.96-40.928 53.472-8.864 3.584-11.936 3.84-49.568 3.84h-40.096l-9.984-4.672c-13.44-6.304-21.856-13.248-28.928-23.936-11.136-16.8-11.456-19.36-11.456-98.848v-71.392l-18.336 0.032c-21.856 0-29.184 1.76-37.408 8.992-11.040 9.696-10.816 7.232-10.848 106.56-0.032 49.536-0.736 93.12-1.6 96.864-2.080 8.864-5.536 11.136-17.024 11.136h-9.472l92.128 92.16c50.688 50.688 92.544 92.16 93.024 92.16s42.336-41.472 93.024-92.16zM555.808 401.472c3.744-2.592 8.64-7.968 10.944-11.936l4.128-7.232 0.544-71.264 0.512-71.264h-117.952v70.912c0 66.336 0.192 71.296 3.232 77.216 4 7.808 9.472 13.024 17.248 16.48 4.832 2.144 12.384 2.56 40.256 2.208l34.272-0.416 6.816-4.704z" />
<glyph unicode="&#xe90d;" glyph-name="search" d="M441.792 686.816c-32.64-3.488-65.632-16.288-91.936-35.744-12.608-9.344-33.856-30.848-42.976-43.488-25.696-35.712-38.432-84.256-33.696-128.48 4.768-44.544 23.168-83.328 54.496-114.848 34.656-34.88 77.536-53.664 127.136-55.68 43.328-1.76 82.656 9.92 117.76 35.008l11.968 8.512 72.608-72.352c66.304-66.080 73.12-72.384 78.24-72.384 7.872 0 17.248 9.376 17.248 17.248 0 5.12-6.304 11.936-72.384 78.24l-72.352 72.608 8.512 11.968c38.528 53.92 46.112 123.424 20.256 185.568-12.256 29.408-41.024 64.192-67.808 82.016-26.752 17.76-56.832 28.576-88.352 31.776-20.288 2.016-19.808 2.016-38.72 0.032zM499.712 651.008c46.88-10.976 89.44-47.392 108.032-92.448 9.568-23.2 10.848-30.528 10.752-61.056-0.064-25.664-0.512-29.536-4.736-43.456-16.032-52.512-55.296-91.808-107.744-107.776-14.016-4.288-17.824-4.704-43.52-4.768-21.536-0.064-30.592 0.608-38.496 2.816-58.24 16.384-101.632 60.288-115.36 116.832-4.576 18.848-4.992 51.52-0.928 70.048 8.096 36.896 29.856 70.688 59.776 92.864 38.24 28.416 85.152 37.952 132.224 26.944z" />
<glyph unicode="&#xe90e;" glyph-name="face" d="M496.64 687.584c-42.304-3.392-84.256-17.856-119.040-40.992-18.272-12.16-43.584-36.32-57.792-55.136-21.152-28.032-39.072-70.752-45.152-107.616-2.72-16.448-2.72-55.232 0-71.68 15.744-95.36 83.712-170.976 176.064-195.904 55.648-15.040 116.32-8.704 169.056 17.632 43.040 21.504 81.568 59.168 103.552 101.216 37.92 72.544 37.92 153.248 0 225.792-34.080 65.184-101.184 112.864-174.624 124.096-13.952 2.144-41.056 3.488-52.064 2.592zM532.736 654.432c78.688-8.032 145.28-59.104 173.824-133.344 16.928-44.032 16.928-102.144 0-146.176-21.344-55.52-65.952-100.128-121.472-121.472-44.032-16.928-102.144-16.928-146.176 0-55.52 21.344-100.128 65.952-121.472 121.472-17.024 44.32-17.024 101.856 0 146.176 28.096 73.12 95.328 125.344 171.52 133.248 19.808 2.080 24.192 2.080 43.776 0.096zM432.256 513.376c-5.824-1.152-10.72-8.544-10.72-16.192 0-12.352 12.096-18.784 24.64-13.088 10.336 4.704 9.184 23.52-1.728 28.064-3.136 1.312-6.336 2.304-7.072 2.176s-3.040-0.576-5.12-0.96zM579.168 512.128c-10.528-4.672-11.424-23.424-1.344-28.032 12.928-5.888 24.64 0.704 24.64 13.856 0 7.488-4.48 14.88-9.024 14.912-1.152 0.032-3.616 0.384-5.504 0.832-1.856 0.448-5.824-0.256-8.768-1.568zM439.296 384.16c-4.16-4.16-5.792-7.328-5.792-11.232 0-12.032 31.584-34.112 55.968-39.136 13.088-2.688 36.608-2.272 48.736 0.864 14.72 3.808 32.224 13.408 43.072 23.68 7.84 7.392 9.216 9.664 9.216 14.848 0 4.672-1.312 7.424-5.44 11.456-7.008 6.88-12.544 6.816-21.856-0.224-15.52-11.744-18.208-13.408-27.296-16.832-7.776-2.912-12.352-3.424-26.496-2.912-19.744 0.704-29.184 4.384-45.184 17.568-11.68 9.632-16.832 10.048-24.928 1.92z" />
<glyph unicode="&#xe90f;" glyph-name="movie" d="M335.36 687.456c-20.16-2.944-38.272-13.92-50.080-30.432-13.888-19.392-13.056-6.336-13.056-209.024 0-170.048 0.16-180.608 3.136-189.952 6.304-20 26.688-40.192 47.2-46.816 8.736-2.816 21.632-3.008 189.44-3.008 164.64 0 180.832 0.224 189.024 2.88 17.216 5.568 32.736 18.496 42.56 35.52 8.32 14.432 8.192 11.232 8.192 201.376s0.128 186.944-8.192 201.376c-6.336 10.976-14.656 20.032-24.16 26.336-19.2 12.768-5.472 11.936-202.304 12.224-97.152 0.128-178.944-0.096-181.76-0.48zM384 616.096v-40.096h-80.224v21.44c0 28.64 1.824 35.2 12.736 46.144 10.912 10.88 15.776 12.224 44.864 12.448l22.624 0.192v-40.128zM607.584 559.776v-96.416h-191.168v192.864h191.168v-96.448zM690.848 654.208c5.888-1.472 10.336-4.32 16.672-10.688 10.88-10.88 12.704-17.472 12.704-46.080v-21.44h-80.224v80.224h21.44c11.776 0 25.024-0.928 29.408-2.016zM384 503.456v-40.096h-80.224v80.224h80.224v-40.128zM720.224 503.456v-40.096h-80.224v80.224h80.224v-40.128zM384 391.68v-39.264h-80.224v78.528h80.224v-39.264zM607.584 335.36v-95.584h-191.168v191.168h191.168v-95.584zM720.224 391.68v-39.264h-80.224v78.528h80.224v-39.264zM384 279.904v-40.128h-21.44c-28.608 0-35.2 1.824-46.080 12.704s-12.704 17.472-12.704 46.080v21.44h80.224v-40.096zM720.224 298.56c0-28.608-1.824-35.2-12.704-46.080s-17.472-12.704-46.080-12.704h-21.44v80.224h80.224v-21.44z" />
<glyph unicode="&#xe910;" glyph-name="star" d="M471.968 612l-39.136-78.368-11.2-1.632c-6.144-0.896-46.304-6.56-89.248-12.544s-77.888-11.456-77.664-12.128c0.224-0.704 28.832-28.288 63.584-61.28 34.72-32.992 63.328-60.832 63.552-61.856 0.256-1.056-6.336-40.096-14.592-86.816-8.288-46.688-14.4-84.896-13.568-84.896 0.8 0 36.768 18.112 79.904 40.256l78.464 40.256 78.432-40.256c43.136-22.144 79.072-40.256 79.872-40.256 0.768 0-5.344 38.208-13.632 84.896-8.256 46.72-14.848 85.76-14.592 86.816 0.224 1.024 28.832 28.864 63.552 61.856 34.752 32.992 63.36 60.576 63.584 61.28 0.224 0.672-34.72 6.144-77.664 12.128s-83.104 11.648-89.248 12.544l-11.2 1.632-39.136 78.368c-21.536 43.104-39.552 78.336-40.032 78.336s-18.496-35.232-40.032-78.336zM541.44 561.536c23.104-46.272 29.28-57.312 32.416-57.984 2.112-0.48 29.568-4.384 61.024-8.672 31.456-4.32 58.944-8.384 61.088-9.056 3.488-1.056-0.928-5.76-42.080-44.672-28.352-26.784-46.080-44.8-46.176-46.848-0.064-1.856 4.576-30.080 10.336-62.784 5.728-32.704 10.016-59.84 9.504-60.352-0.48-0.512-25.568 11.808-55.712 27.36-32.832 16.96-56.736 28.288-59.616 28.288-2.848 0-27.008-11.392-59.84-28.288-30.272-15.552-55.456-27.872-55.968-27.36s3.808 27.648 9.536 60.352c5.76 32.704 10.4 60.928 10.336 62.784-0.096 2.048-17.824 20.064-46.176 46.848-41.152 38.912-45.568 43.616-42.080 44.672 2.144 0.672 29.632 4.736 61.088 9.056 31.456 4.288 58.912 8.192 61.024 8.672 3.136 0.672 9.312 11.712 32.416 57.984 15.712 31.424 28.96 57.12 29.44 57.12s13.728-25.696 29.44-57.12z" />
<glyph unicode="&#xe911;" glyph-name="cross" d="M348.16 624.288c-4.096-1.504-10.464-7.84-12.096-12.032-0.896-2.304-0.768-5.696 0.288-8.512 0.96-2.592 35.68-38.688 77.152-80.224l75.392-75.52-75.392-75.52c-41.472-41.536-76.192-77.632-77.152-80.224-2.112-5.632-0.352-10.976 5.216-15.936 5.632-5.024 9.28-5.984 14.72-3.968 2.56 0.96 38.656 35.68 80.192 77.152l75.52 75.392 75.52-75.392c41.536-41.472 77.632-76.192 80.224-77.152 5.632-2.112 10.976-0.352 15.936 5.216 5.024 5.632 5.984 9.28 3.968 14.72-0.96 2.56-35.68 38.656-77.152 80.192l-75.392 75.52 75.392 75.52c41.472 41.536 76.192 77.632 77.152 80.192 2.016 5.44 1.056 9.088-3.968 14.72-4.96 5.568-10.304 7.328-15.936 5.216-2.592-0.96-38.688-35.68-80.224-77.152l-75.488-75.392-76.48 76.352c-42.048 41.984-77.312 76.32-78.368 76.32s-2.944 0.32-4.192 0.736c-1.248 0.384-3.424 0.288-4.832-0.224z" />
<glyph unicode="&#xe912;" glyph-name="cross-filled" d="M475.296 669.152c-28.992-5.6-53.184-14.304-74.592-26.816-52.8-30.816-89.92-79.776-105.952-139.712-5.024-18.72-5.248-21.216-5.344-53.76-0.096-31.744 0.224-35.424 4.544-52.544 21.28-83.84 82.592-145.152 166.368-166.336 16.928-4.288 21.056-4.672 51.68-4.64 29.152 0 35.296 0.512 49.504 4 85.696 21.184 147.968 83.456 169.152 169.152 3.488 14.24 4 20.32 4 49.504s-0.512 35.264-4 49.504c-20.928 84.672-82.656 147.2-166.112 168.288-14.784 3.744-22.272 4.544-47.424 5.056-20.48 0.416-33.6-0.096-41.824-1.696zM483.2 499.744l28.8-28.48 28.8 28.48c26.368 26.080 29.28 28.48 34.848 28.48 8.448 0 16.576-8.128 16.576-16.576 0-5.568-2.4-8.48-28.48-34.848l-28.48-28.8 28.48-28.8c26.080-26.368 28.48-29.28 28.48-34.848 0-4.48-1.376-7.424-5.248-11.328-3.904-3.872-6.848-5.248-11.328-5.248-5.568 0-8.48 2.4-34.848 28.48l-28.8 28.48-28.8-28.48c-26.368-26.080-29.28-28.48-34.848-28.48-8.448 0-16.576 8.128-16.576 16.576 0 5.568 2.4 8.48 28.48 34.848l28.48 28.8-28.48 28.8c-26.080 26.368-28.48 29.28-28.48 34.848 0 4.48 1.376 7.424 5.248 11.328 3.904 3.872 6.848 5.248 11.328 5.248 5.568 0 8.48-2.4 34.848-28.48z" />
<glyph unicode="&#xe913;" glyph-name="cross-outlined" d="M475.296 669.184c-48.992-9.344-87.456-29.408-121.28-63.2-29.472-29.504-48.256-62.208-59.296-103.36-5.056-18.912-5.248-20.928-5.248-54.624s0.192-35.712 5.248-54.624c11.040-41.152 29.824-73.856 59.296-103.36 29.504-29.472 62.208-48.256 103.36-59.296 18.912-5.056 20.928-5.248 54.624-5.248s35.712 0.192 54.624 5.248c41.152 11.040 73.856 29.824 103.36 59.296 29.472 29.504 48.256 62.208 59.296 103.36 5.056 18.912 5.248 20.928 5.248 54.624s-0.192 35.712-5.248 54.624c-11.040 41.152-29.824 73.856-59.296 103.36-29.6 29.568-62.624 48.48-103.36 59.168-17.504 4.576-22.912 5.184-49.504 5.728-20.16 0.384-33.76-0.16-41.824-1.696zM546.336 636.64c77.024-13.504 140.8-77.28 154.304-154.304 5.152-29.344 2.432-68.544-6.592-94.912-22.56-66.080-80.48-116.288-147.712-128.064-18.336-3.2-50.336-3.2-68.672 0-77.024 13.504-140.8 77.28-154.304 154.304-3.2 18.336-3.2 50.336 0 68.672 13.408 76.64 76.768 140.384 153.376 154.272 16.8 3.072 52.256 3.072 69.6 0.032zM437.024 522.976c-3.872-3.904-5.248-6.848-5.248-11.328 0-5.568 2.4-8.48 28.48-34.848l28.48-28.8-28.48-28.8c-26.080-26.368-28.48-29.28-28.48-34.848 0-8.448 8.128-16.576 16.576-16.576 5.568 0 8.48 2.4 34.848 28.48l28.8 28.48 28.8-28.48c26.368-26.080 29.28-28.48 34.848-28.48 4.48 0 7.424 1.376 11.328 5.248 3.872 3.904 5.248 6.848 5.248 11.328 0 5.568-2.4 8.48-28.48 34.848l-28.48 28.8 28.48 28.8c26.080 26.368 28.48 29.28 28.48 34.848 0 8.448-8.128 16.576-16.576 16.576-5.568 0-8.48-2.4-34.848-28.48l-28.8-28.48-28.8 28.48c-26.368 26.080-29.28 28.48-34.848 28.48-4.48 0-7.424-1.376-11.328-5.248z" />
<glyph unicode="&#xe914;" glyph-name="plus" d="M500.832 686.144l-4.192-4.16v-218.624h-218.624l-4.16-4.192c-3.040-3.040-4.192-6.048-4.192-10.912 0-8.608 4.128-13.664 12.8-15.648 3.776-0.896 53.056-1.6 110.496-1.632l103.68-0.032v-216.928l4.192-4.16c3.040-3.040 6.048-4.192 10.912-4.192 8.608 0 13.664 4.128 15.648 12.8 0.896 3.776 1.6 52.736 1.632 109.632l0.032 102.848 102.848 0.032c56.896 0.032 105.856 0.736 109.632 1.632 8.672 1.984 12.8 7.040 12.8 15.648 0 4.864-1.152 7.872-4.192 10.912l-4.16 4.192h-216.928l-0.032 103.68c-0.032 57.44-0.736 106.72-1.632 110.496-1.984 8.672-7.040 12.8-15.648 12.8-4.864 0-7.872-1.152-10.912-4.192z" />
<glyph unicode="&#xe915;" glyph-name="plus-filled" d="M475.296 669.152c-28.992-5.6-53.184-14.304-74.592-26.816-52.8-30.816-89.92-79.776-105.952-139.712-5.024-18.72-5.248-21.216-5.344-53.76-0.096-31.744 0.224-35.424 4.544-52.544 21.28-83.84 82.592-145.152 166.368-166.336 16.928-4.288 21.056-4.672 51.68-4.64 29.152 0 35.296 0.512 49.504 4 85.696 21.184 147.968 83.456 169.152 169.152 3.488 14.24 4 20.32 4 49.504s-0.512 35.264-4 49.504c-20.928 84.672-82.656 147.2-166.112 168.288-14.784 3.744-22.272 4.544-47.424 5.056-20.48 0.416-33.6-0.096-41.824-1.696zM523.616 549.888c3.52-3.744 3.712-5.6 4.128-44.8l0.48-40.864 40.864-0.48c39.2-0.416 41.056-0.608 44.8-4.128 3.008-2.816 3.936-5.536 3.936-11.616s-0.928-8.8-3.936-11.616c-3.744-3.52-5.6-3.712-44.8-4.128l-40.864-0.48-0.48-40.864c-0.416-39.2-0.608-41.056-4.128-44.8-2.816-3.008-5.536-3.936-11.616-3.936s-8.8 0.928-11.616 3.936c-3.52 3.744-3.712 5.6-4.128 44.8l-0.48 40.864-40.864 0.48c-39.2 0.416-41.056 0.608-44.8 4.128-5.376 5.056-5.504 17.408-0.224 23.040 3.68 3.904 4.032 3.936 45.248 3.936h41.504v41.28c0 40.032 0.128 41.408 3.712 45.216 5.248 5.568 18.048 5.6 23.264 0.032z" />
<glyph unicode="&#xe916;" glyph-name="plus-outlined" d="M493.632 671.424c-95.616-7.36-175.776-76.096-199.392-171.040-6.048-24.256-7.488-61.696-3.328-86.656 9.792-58.848 41.76-111.52 88.832-146.336 45.728-33.792 109.952-49.376 166.4-40.352 96.672 15.456 170.784 89.408 186.944 186.624 3.52 21.184 2.656 60.064-1.792 80.416-9.152 41.824-27.872 77.344-56.736 107.68-47.808 50.24-112 74.944-180.928 69.664zM541.824 637.216c24.992-3.264 53.696-14.4 77.216-29.92 12.896-8.544 36.128-30.848 46.72-44.896 9.952-13.216 21.632-35.296 27.84-52.672 12.704-35.616 12.832-86.048 0.288-122.816-9.184-26.912-22.752-49.152-42.72-70.048-16.736-17.472-31.456-28.704-50.432-38.496-30.080-15.52-54.816-21.504-88.736-21.504-52.544 0-94.752 16.992-132.576 53.44-25.952 25.024-43.744 55.008-52.992 89.44-4.064 15.136-4.48 19.616-4.512 48.256-0.064 28.928 0.32 32.992 4.512 48.64 5.504 20.512 19.808 50.144 32.128 66.56 32.224 42.912 82.976 71.456 134.656 75.776 16.16 1.344 28.384 0.896 48.608-1.76zM500.352 549.856c-3.584-3.808-3.712-5.184-3.712-45.216v-41.28h-41.504c-41.216 0-41.568-0.032-45.248-3.936-5.504-5.888-5.152-17.984 0.704-23.488 4.352-4.128 4.736-4.16 45.216-4.704l40.832-0.576v-40.512c0-40.16 0.032-40.576 3.936-44.256 5.888-5.504 17.984-5.152 23.488 0.704 4.096 4.352 4.16 4.768 4.704 44.224l0.576 39.84 39.84 0.576c39.456 0.544 39.872 0.608 44.224 4.704 6.048 5.664 6.272 18.24 0.448 23.712-3.808 3.584-5.216 3.712-44.224 3.712h-40.288l-0.576 40.832c-0.544 40.48-0.576 40.864-4.704 45.216-5.664 6.048-18.24 6.272-23.712 0.448z" />
<glyph unicode="&#xe917;" glyph-name="wifi" d="M280.544 686.272c-10.592-4.768-11.328-24.128-1.056-28.032 2.56-0.96 17.728-2.56 33.696-3.552 61.824-3.776 109.472-16.352 165.536-43.648 43.2-21.024 79.872-47.264 114.432-81.856 34.496-34.56 61.12-71.776 81.888-114.464 27.296-56.032 39.872-103.712 43.648-165.536 0.992-15.968 2.592-31.136 3.552-33.696 2.464-6.464 12.48-9.248 20.768-5.792 8.352 3.488 10.112 10.176 8.8 33.024-5.728 99.712-36.288 184.128-95.36 263.296-15.552 20.896-65.536 70.88-86.432 86.432-79.36 59.2-166.272 90.592-263.68 95.264-15.648 0.736-21.728 0.416-25.792-1.44zM280.672 490.752c-5.76-2.336-8.16-6.688-8.16-14.784 0-12.48 3.36-14.528 26.464-16.288 39.040-3.008 67.456-10.816 98.464-27.136 43.456-22.848 78.080-57.92 100.512-101.792 15.616-30.528 22.432-56.16 25.728-96.64 1.792-22.208 3.968-25.6 16.352-25.6 15.168 0 17.792 6.88 14.784 38.88-12.128 128.864-110.912 229.184-239.456 243.168-19.264 2.112-29.792 2.176-34.688 0.192zM300.48 293.248c-11.072-4.032-23.104-16.768-26.432-27.968-1.472-4.96-2.688-11.072-2.688-13.536 0-22.72 21.664-44.384 44.384-44.384 22.88 0 44.352 21.6 44.352 44.608 0 15.36-11.008 32.608-25.504 39.904-8.256 4.16-24.736 4.832-34.112 1.376zM323.744 259.968c4.96-4.672 5.024-11.104 0.224-16.224-4.672-4.96-11.104-5.056-16.224-0.256-4.96 4.672-5.056 11.104-0.256 16.256 4.672 4.96 11.104 5.024 16.256 0.224z" />
<glyph unicode="&#xe918;" glyph-name="wifi-vertical" d="M474.528 621.92c-73.088-9.44-144.192-44.096-191.648-93.344-13.632-14.176-14.752-19.072-6.272-27.552 8.672-8.672 14.912-7.744 27.168 4.032 59.008 56.672 130.56 86.304 208.224 86.304 77.728 0 150.080-30.016 208.256-86.4 10.144-9.856 15.36-11.552 23.008-7.456 5.056 2.688 9.376 9.824 9.376 15.424 0 4.48-17.984 23.488-35.84 37.952-47.904 38.72-106.496 63.392-168.928 71.104-16.64 2.080-57.184 2.048-73.344-0.064zM480.416 477.824c-37.568-7.008-70.72-23.584-96.96-48.544-7.040-6.656-13.248-14.048-13.856-16.448-2.048-8.128 8.192-19.456 17.632-19.456 1.696 0 8.384 4.704 14.848 10.432 22.208 19.68 41.472 30.784 66.752 38.496 13.504 4.128 17.76 4.576 42.304 4.704 23.456 0.096 29.184-0.448 40.608-3.744 26.176-7.552 47.712-19.68 70.176-39.488 6.464-5.728 13.152-10.4 14.848-10.4 9.44 0 19.68 11.328 17.632 19.456-2.4 9.536-35.328 36.256-59.616 48.416-32.448 16.224-79.616 23.072-114.368 16.576zM503.872 343.968c-9.824-2.4-18.464-9.472-23.232-19.072-7.040-14.144-5.376-28.896 4.544-40.192 23.168-26.368 66.144-7.072 62.208 27.936-2.336 20.736-23.744 36.16-43.52 31.328zM515.104 308.352c0.416-2.784-0.32-3.712-2.976-3.712-2.304 0-3.552 1.088-3.552 3.136 0 6.496 5.6 6.976 6.528 0.576z" />
<glyph unicode="&#xe919;" glyph-name="music" d="M440.32 534.912v-153.76l-6.4 4.992c-18.496 14.464-37.536 20.896-61.632 20.864-27.84-0.032-48.032-7.808-67.872-26.208-21.824-20.224-32.16-44.032-32-73.6 0.192-28.64 9.952-51.104 30.912-71.104 12.896-12.288 21.408-17.504 37.536-23.040 17.856-6.112 41.728-6.496 59.36-0.992 32.704 10.208 58.368 36.544 68.64 70.464 2.496 8.224 2.88 24.224 3.456 135.168l0.608 125.888h247.296v-162.112l-7.968 6.080c-18.272 13.952-36.704 20.064-60.32 20.064-26.816 0-47.968-8.256-67.232-26.272-12.8-11.968-21.664-24.576-26.464-37.632-16.896-46.016-0.544-94.144 41.12-121.088 15.936-10.272 30.912-14.368 52.576-14.368 29.056 0 48.64 7.968 69.472 28.256 12.32 11.968 19.776 23.68 25.664 40.256l4.704 13.376v397.632l-311.456 0.896v-153.76zM720.224 616.096v-40.096h-247.488v80.224h247.488v-40.128zM674.592 371.776c15.072-4.768 32.096-20.416 39.136-36.032 7.872-17.504 7.296-41.664-1.408-58.816-6.208-12.256-19.104-24.448-32.64-30.784-10.4-4.896-13.088-5.44-27.744-5.44-14.624 0-17.312 0.544-27.616 5.376-29.216 13.76-44.576 42.88-38.944 73.92 2.624 14.496 8.32 25.216 19.072 35.968 18.176 18.176 44.064 24 70.144 15.808zM400.224 368.96c13.408-6.24 26.624-19.392 32.736-32.576 4.352-9.408 4.8-12.192 4.8-29.184 0-17.376-0.384-19.52-5.024-28.672-13.696-27.040-42.272-41.76-71.936-37.024-14.592 2.336-25.664 8.064-36.448 18.848s-16.512 21.856-18.848 36.448c-4.384 27.456 7.616 53.824 31.232 68.768 11.36 7.168 19.264 8.992 37.024 8.576 13.632-0.352 17.824-1.152 26.464-5.184z" />
<glyph unicode="&#xe91a;" glyph-name="message" d="M355.584 686.784c-37.312-6.24-69.664-35.776-80.256-73.248-2.848-10.176-3.104-19.232-3.104-110.080 0-91.264 0.224-99.776 3.136-109.216 10.016-32.672 35.008-59.072 65.856-69.568 11.168-3.808 11.648-3.808 143.488-4.288l132.256-0.48 113.248-113.024 7.2 0.96c3.968 0.544 8.8 2.56 10.784 4.544l3.584 3.616 0.448 190.24c0.512 208.992 0.704 204.064-9.728 225.216-9.6 19.392-28.032 37.76-47.040 46.88-21.472 10.304-21.952 10.336-183.808 10.112-80.992-0.128-151.232-0.864-156.064-1.664zM663.648 654.432c21.888-3.552 40.32-17.76 50.272-38.752l5.44-11.52 0.448-170.656 0.48-170.688-89.696 89.6-133.952 0.032c-107.296 0-135.712 0.48-142.656 2.336-19.264 5.12-37.44 21.824-45.344 41.6-3.872 9.696-3.904 10.752-4.512 97.28-0.64 96.288 0.16 109.824 7.488 124.288 9.28 18.336 28.928 33.28 47.904 36.48 12.544 2.112 291.136 2.112 304.128 0zM388.192 515.488c-8.704-8.704-3.552-25.216 8.544-27.488 16.096-3.008 26.176 17.088 14.176 28.288-5.44 5.056-17.28 4.64-22.72-0.8zM500.832 515.488c-4.512-4.512-5.76-15.264-2.496-21.376 2.656-4.96 12.448-7.52 19.648-5.152 7.168 2.368 9.376 5.952 9.376 15.328 0 9.632-5.728 15.392-15.36 15.392-5.152 0-8.096-1.12-11.168-4.192zM613.088 516.288c-12-11.2-1.92-31.296 14.176-28.288 12.096 2.272 17.248 18.784 8.544 27.488-5.44 5.44-17.28 5.856-22.72 0.8z" />
<glyph unicode="&#xe91b;" glyph-name="terminal" d="M354.976 686.272c-24.832-5.536-43.904-24.96-49.28-50.208-2.688-12.736-2.688-363.392 0-376.128 5.184-24.448 23.456-44 46.656-49.952 15.296-3.936 304-3.936 319.296 0 23.2 5.952 41.472 25.504 46.656 49.952 2.688 12.736 2.688 363.392 0 376.128-5.536 26.080-25.824 45.92-51.808 50.72-14.944 2.752-298.88 2.304-311.52-0.512zM664.256 654.432c8.512-2.368 16.512-9.344 20.32-17.76 2.976-6.56 3.136-16.032 3.168-188.736l0.032-181.824-3.84-7.52c-2.112-4.128-6.784-9.856-10.4-12.736l-6.56-5.216h-309.952l-6.56 5.216c-3.616 2.88-8.288 8.608-10.4 12.736l-3.84 7.52 0.032 181.824c0.032 173.12 0.192 182.144 3.168 188.64 1.76 3.776 5.12 8.64 7.488 10.816 9.568 8.832 6.688 8.672 164.224 8.736 95.936 0.032 148.992-0.544 153.12-1.696zM424.96 585.216c-7.712-3.328-16.416-11.712-21.056-20.32-3.264-6.016-3.68-9.472-3.68-29.856 0-25.728 1.728-31.264 13.056-42.144 11.36-10.88 10.176-10.752 98.72-10.752s87.36-0.128 98.72 10.752c11.328 10.88 13.056 16.416 13.056 42.144s-1.728 31.264-13.056 42.144c-11.36 10.912-10.144 10.784-99.104 10.688-68.16-0.064-81.6-0.448-86.656-2.656zM590.432 552.224c0.992-1.824 1.792-9.536 1.792-17.184 0-22.656 8.576-20.48-80.224-20.48s-80.224-2.176-80.224 20.48c0 22.656-8.576 20.48 80.224 20.48 74.080 0 76.736-0.128 78.432-3.296zM405.792 410.496c-8.928-7.008-6.688-23.424 3.712-27.072 11.968-4.16 22.272 2.944 22.272 15.392 0 13.184-15.328 20.096-25.984 11.68zM500.832 409.664c-4.544-4.512-5.76-15.264-2.464-21.44 2.4-4.48 12.16-6.912 19.584-4.864 7.104 1.952 9.408 5.664 9.408 15.104 0 9.664-5.728 15.392-15.36 15.392-5.152 0-8.096-1.088-11.168-4.192zM596.416 409.664c-8.16-8.128-4.608-23.648 6.080-26.528 13.152-3.552 23.648 5.76 21.056 18.72-2.336 11.584-18.688 16.288-27.136 7.808zM405.824 336.96c-4.832-2.816-7.008-14.048-4.096-20.992 2.656-6.4 6.944-8.544 16.416-8.224 12.128 0.416 18.176 16.288 10.112 26.528-2.944 3.744-4.896 4.48-11.52 4.448-4.384-0.032-9.312-0.832-10.912-1.76zM500.352 334.816c-4.352-4.64-5.056-17.184-1.216-22.208 4.928-6.528 20.8-6.528 25.76 0.032 1.312 1.696 2.368 6.592 2.4 10.912 0.096 10.496-4.736 15.232-15.52 15.232-5.856 0-8.608-0.96-11.424-3.968zM595.744 334.272c-4.832-6.144-4.672-16.16 0.32-21.952 2.944-3.424 5.472-4.48 10.816-4.576 3.872-0.032 8.608 0.768 10.592 1.824 7.648 4.096 7.904 23.456 0.384 27.488-1.792 0.928-6.688 1.728-10.912 1.728-6.24 0-8.32-0.832-11.2-4.512z" />
<glyph unicode="&#xe91c;" glyph-name="bookmark" d="M424.352 686.912c-25.344-4.416-48.512-27.136-53.92-52.896-1.44-6.88-1.824-66.432-1.44-224.096l0.512-214.688 69.12 45.536c38.016 25.056 70.432 45.92 72.032 46.368 1.824 0.512 28.736-16.192 71.936-44.608 37.952-24.96 70.24-45.856 71.744-46.432 2.496-0.96 2.72 17.152 2.688 206.912-0.064 199.136-0.512 221.152-4.896 237.28-4.512 16.608-23.2 36.448-41.152 43.68-9.216 3.712-10.912 3.776-93.856 4.064-46.464 0.16-88.192-0.352-92.768-1.12zM597.792 654.4c8.608-2.368 17.184-10.208 22.048-20.032l3.936-8.032 0.48-185.792c0.448-169.792 0.256-185.696-2.24-184.768-1.504 0.576-26.176 16.48-54.848 35.328s-52.992 34.592-54.080 34.976c-1.056 0.416-26.528-15.392-56.544-35.136l-54.624-35.904-0.448 186.368c-0.416 183.424-0.352 186.496 3.008 193.44 4.384 9.088 11.552 15.904 19.872 18.88 8.32 2.944 163.040 3.584 173.44 0.672z" />
<glyph unicode="&#xe91d;" glyph-name="bookmark-filled" d="M421.536 670.016c-13.056-4.064-26.496-16.544-32.992-30.56l-3.68-8-0.48-203.616c-0.352-163.936-0.032-203.392 1.728-202.336 1.184 0.736 29.984 19.584 64.032 41.92l61.856 40.608 61.856-40.608c34.048-22.336 62.848-41.184 64.032-41.92 1.76-1.056 2.080 38.4 1.728 202.336l-0.48 203.616-3.68 8c-4.64 10.080-16.288 22.784-25.248 27.552-6.816 3.648-8.192 3.712-95.648 4.032-48.8 0.16-90.656-0.288-93.024-1.024z" />
<glyph unicode="&#xe91e;" glyph-name="plus-folder" d="M321.248 648.48c-4.96-1.344-11.392-3.712-14.336-5.216-7.936-4.096-21.152-17.056-26.208-25.664-9.12-15.552-9.28-18.784-9.28-169.6 0-151.008 0.16-154.016 9.344-169.728 6.432-10.944 21.344-23.904 32.832-28.544l9.824-3.968h377.152l9.888 4c12.608 5.088 28.096 19.296 34.080 31.264 7.872 15.808 8.32 23.584 7.744 137.12l-0.512 105.792-3.968 9.888c-4.736 11.68-19.84 28.8-30.016 34.016-15.36 7.84-19.104 8.128-111.904 8.128l-87.872 0.032-74.304 74.24-56.736 0.352c-44.896 0.256-58.624-0.16-65.728-2.112zM465.92 583.552c19.264-19.296 37.056-36.192 39.584-37.536 3.84-2.048 20.032-2.432 96.512-2.432h91.872l7.584-3.84c4.448-2.24 9.728-6.912 12.736-11.264l5.152-7.392v-220.704l-5.12-7.552c-2.976-4.384-8.288-9.216-12.64-11.52l-7.52-3.968h-364.16l-7.52 3.968c-4.352 2.304-9.664 7.136-12.64 11.52l-5.12 7.552v295.232l5.12 7.552c2.976 4.384 8.288 9.216 12.64 11.52 7.392 3.904 8.48 3.968 58.048 3.968h50.528l34.944-35.104zM500.352 496.96c-3.552-3.776-3.712-5.44-3.712-36.704v-32.736h-28.576c-30.944-0.032-39.872-1.504-43.904-7.264-4.128-5.888-3.36-16.064 1.568-20.96 4.16-4.16 4.416-4.192 37.568-4.192h33.344v-33.376c0-33.12 0.032-33.376 4.192-37.536 5.12-5.12 15.744-5.728 21.312-1.216 5.408 4.416 6.848 13.504 6.88 44.384l0.032 27.744h32.512c32.224 0 32.544 0.032 36.704 4.192 4.928 4.896 5.696 15.072 1.568 20.96-4.032 5.728-12.928 7.232-42.88 7.264h-27.584l-0.576 32.288c-0.576 31.456-0.704 32.416-4.736 36.704-5.664 6.048-18.24 6.272-23.712 0.448z" />
<glyph unicode="&#xe91f;" glyph-name="folder" d="M328.384 639.168c-22.4-3.296-43.872-19.872-52.064-40.128l-4.096-10.24-0.512-133.984c-0.288-80.96 0.192-138.176 1.184-144.64 2.144-13.856 7.264-23.872 17.568-34.4 9.888-10.080 22.528-16.672 36.448-18.944 13.632-2.24 356.544-2.24 370.176 0 18.912 3.104 35.904 14.528 46.528 31.328 8.672 13.696 9.216 22.080 8.672 130.656l-0.512 100-4.096 10.24c-5.28 13.056-20.032 28.192-33.792 34.624l-9.888 4.64-185.504 0.96-35.232 33.472c-19.392 18.4-37.728 34.496-40.768 35.776-4.224 1.792-16.768 2.272-55.456 2.112-27.488-0.128-53.888-0.8-58.656-1.472zM466.784 574.272c25.408-24.128 37.568-34.56 41.792-35.776 3.712-1.056 40.416-1.728 96.32-1.728 88.576-0.032 90.496-0.096 97.824-3.648 4.512-2.176 9.312-6.368 12.064-10.528l4.576-6.912 0.48-99.968c0.448-88.32 0.16-100.8-2.24-107.168-3.296-8.672-12.064-16.736-20.8-19.168-8.864-2.464-360.64-2.464-369.504-0.032-8.48 2.368-16.48 9.376-20.288 17.792-2.976 6.496-3.136 14.464-3.104 140 0.032 140.704 0.064 141.056 7.808 149.632 3.776 4.16 11.488 8.352 18.528 10.048 2.816 0.704 26.624 1.312 52.896 1.376l47.808 0.096 35.84-34.016z" />
<glyph unicode="&#xe920;" glyph-name="folders" d="M418.048 669.088c-16.544-6.080-28.256-15.232-36.96-28.832-7.040-11.040-8.992-20.672-9.024-44.192v-21.76h-19.552c-31.584 0-46.4-4.768-61.376-19.776-9.28-9.28-15.168-20.064-17.856-32.8-1.312-6.176-1.92-45.344-1.92-123.808 0-127.264 0-127.104 11.040-143.84 6.88-10.4 17.664-19.616 29.216-24.928l8.384-3.872h283.296l10.24 4.768c11.136 5.216 22.656 15.296 29.344 25.696 7.040 11.008 9.024 20.64 9.056 44.192v21.76h19.552c22.112 0 34.080 2.080 45.536 7.808 10.080 5.088 22.688 17.728 27.872 27.872 7.52 14.88 8 22.496 7.424 121.344l-0.544 93.024-4.096 10.208c-5.12 12.704-18.912 27.616-31.296 33.792-13.76 6.88-26.368 8-90.048 8.032h-58.912l-47.712 47.808-47.808-0.128c-34.912-0.096-49.44-0.736-53.856-2.368zM530.496 615.264l25.024-23.84 66.56-0.032c39.232-0.032 69.088-0.768 72.736-1.76 9.728-2.72 17.376-8.736 21.568-16.992l3.84-7.616-0.064-92.224c-0.032-85.76-0.256-92.704-3.168-99.104-3.776-8.384-11.808-15.424-20.32-17.888-4.352-1.28-47.84-1.696-138.752-1.344l-132.416 0.512-6.784 4.736c-3.744 2.592-8.512 7.712-10.56 11.392l-3.744 6.656 0.448 121.024 0.48 120.992 4.768 6.272c9.312 12.192 12.48 12.928 56.384 13.024l38.976 0.064 25.024-23.872zM372.448 456.064l0.448-85.792 5.632-11.424c6.816-13.824 20.64-26.88 34.4-32.448 9.376-3.808 10.4-3.84 108.16-4.32l98.688-0.512-0.544-22.688c-0.544-21.824-0.736-22.912-5.344-28.96-2.656-3.456-7.84-7.808-11.52-9.696-6.592-3.36-9.44-3.424-142.112-2.976l-135.392 0.448-5.984 4.128c-3.328 2.272-7.872 6.816-10.112 10.112l-4.128 5.984-0.512 117.056c-0.352 80.032 0.064 119.008 1.312 123.36 2.496 8.512 9.536 16.512 17.888 20.32 5.472 2.496 11.232 3.136 27.776 3.168l20.864 0.032 0.48-85.792z" />
<glyph unicode="&#xe921;" glyph-name="delete-folder" d="M328.384 639.168c-22.4-3.296-43.872-19.872-52.064-40.128l-4.096-10.24-0.512-133.984c-0.288-80.96 0.192-138.176 1.184-144.64 2.144-13.856 7.264-23.872 17.568-34.4 9.888-10.080 22.528-16.672 36.448-18.944 13.632-2.24 356.544-2.24 370.176 0 18.912 3.104 35.904 14.528 46.528 31.328 8.672 13.696 9.216 22.080 8.672 130.656l-0.512 100-4.096 10.24c-5.28 13.056-20.032 28.192-33.792 34.624l-9.888 4.64-185.504 0.96-35.232 33.472c-19.392 18.4-37.728 34.496-40.768 35.776-4.224 1.792-16.768 2.272-55.456 2.112-27.488-0.128-53.888-0.8-58.656-1.472zM466.784 574.272c25.408-24.128 37.568-34.56 41.792-35.776 3.712-1.056 40.416-1.728 96.32-1.728 88.576-0.032 90.496-0.096 97.824-3.648 4.512-2.176 9.312-6.368 12.064-10.528l4.576-6.912 0.48-99.968c0.448-88.32 0.16-100.8-2.24-107.168-3.296-8.672-12.064-16.736-20.8-19.168-8.864-2.464-360.64-2.464-369.504-0.032-8.48 2.368-16.48 9.376-20.288 17.792-2.976 6.496-3.136 14.464-3.104 140 0.032 140.704 0.064 141.056 7.808 149.632 3.776 4.16 11.488 8.352 18.528 10.048 2.816 0.704 26.624 1.312 52.896 1.376l47.808 0.096 35.84-34.016zM451.232 471.2c-10.336-10.336-9.12-13.312 15.872-38.752l21.632-22.048-21.632-21.888c-17.888-18.048-21.664-22.752-21.664-26.88 0-9.664 11.264-19.136 20.064-16.928 2.368 0.608 13.824 10.4 25.408 21.76l21.088 20.672 21.088-20.672c11.584-11.36 23.040-21.152 25.408-21.76 9.664-2.432 21.664 9.696 19.2 19.424-0.608 2.496-10.24 13.728-21.792 25.408l-20.672 20.928 19.712 20.032c10.848 11.040 20.64 21.824 21.792 24 4.672 8.96-4.768 22.528-15.648 22.528-4.48 0-8.64-3.328-27.168-21.664l-21.856-21.632-22.048 21.632c-25.44 24.96-28.416 26.208-38.784 15.84z" />
<glyph unicode="&#xe922;" glyph-name="basket" d="M314.88 687.488c-5.472-1.44-9.248-5.728-10.368-11.744-1.312-6.912 0.16-11.808 4.864-16.16 3.136-2.944 6.048-3.36 22.88-3.36h19.328l-0.032-159.168-0.032-159.136-9.344-4.032c-5.12-2.24-13.184-7.84-17.92-12.512-38.624-38.048-18.784-102.496 34.592-112.384 7.296-1.344 12.256-1.152 21.568 0.768 38.592 8.064 61.024 49.376 47.328 87.136l-4.064 11.168h153.28l-1.856-3.52c-7.2-13.472-8.768-36-3.584-51.712 15.104-45.792 71.040-59.456 105.024-25.664 14.784 14.72 22.112 37.408 18.464 57.056-5.376 28.96-25.184 49.216-53.248 54.528-5.568 1.056-57.024 1.728-133.408 1.728h-124.352v66.56h150.656c163.776 0 156.224-0.416 159.84 9.12 0.768 2.016 7.008 44.576 13.888 94.592l12.48 90.88-3.456 4.608c-1.888 2.528-5.664 5.152-8.416 5.856s-73.728 6.304-157.728 12.48c-84.032 6.144-156.032 11.616-160 12.128l-7.264 0.96v20.256c0 18.976-0.256 20.608-4.128 25.088l-4.096 4.768-28.736 0.32c-15.808 0.16-30.272-0.128-32.16-0.608zM541.856 592.864c78.848-5.76 143.456-10.56 143.584-10.688 0.192-0.16-19.328-140.896-19.712-142.272-0.064-0.256-63.488-0.448-140.928-0.448h-140.8v165.76l7.264-0.928c3.968-0.512 71.744-5.664 150.592-11.424zM385.152 301.92c17.536-13.28 19.296-38.528 3.68-53.088-4.512-4.224-15.072-9.056-19.712-9.024-23.68 0.064-39.84 26.592-29.696 48.608 8.384 18.112 30.88 24.768 45.728 13.504zM640.384 306.272c13.504-3.744 23.424-17.44 23.424-32.352 0-20.512-18.080-36.544-37.504-33.28-7.872 1.344-19.968 11.264-23.232 19.040-2.976 7.168-2.976 21.312 0 28.48 2.912 6.912 15.264 17.76 21.344 18.688 8.128 1.248 9.536 1.216 15.968-0.576z" />
<glyph unicode="&#xe923;" glyph-name="truck" d="M305.024 638.976c-9.6-2.24-15.296-5.664-22.208-13.312-11.904-13.152-11.584-8.416-11.072-168.128l0.48-142.944 4.768-4.128c4.512-3.872 6.080-4.128 25.632-4.128h20.832l2.944-8.256c5.696-16 21.44-31.488 38.56-37.888 13.184-4.928 31.808-4.896 45.088 0.064 17.856 6.688 34.208 23.232 39.104 39.616l1.952 6.464h121.792l1.952-6.464c4.896-16.384 21.248-32.928 39.104-39.616 13.28-4.96 31.904-4.992 45.088-0.064 17.12 6.4 32.864 21.888 38.56 37.888l2.944 8.256h20c22.496 0 27.712 1.568 30.304 9.024 1.152 3.296 1.792 32.928 1.792 82.592 0 64.736-0.416 78.368-2.528 82.944-1.376 3.040-19.264 33.536-39.712 67.776-25.184 42.112-38.592 62.944-41.44 64.384-3.104 1.6-18.816 2.144-60.096 2.176l-55.904 0.032v7.296c0 9.248-3.52 14.272-11.584 16.512-7.904 2.208-227.008 2.112-236.352-0.096zM520.544 473.6v-134.816h-35.008c-26.816 0-34.976 0.48-35.008 2.112-0.032 5.216-8.768 19.936-16.384 27.584-4.736 4.768-13.12 10.688-19.424 13.664-9.984 4.736-12.704 5.28-27.296 5.248-14.176 0-17.536-0.608-26.656-4.8-6.208-2.88-13.888-8.384-19.072-13.632-8.32-8.512-17.44-23.072-17.44-27.872 0-1.696-2.752-2.304-10.24-2.304h-10.24v131.392c0 129.152 0.064 131.488 3.424 134.848 3.328 3.328 5.696 3.392 108.384 3.392h104.96v-134.816zM667.552 557.632c8.128-13.824 20.576-34.944 27.68-46.912l12.896-21.76h-155.168v93.856l99.84-0.032 14.752-25.152zM720.224 397.664v-58.88h-10.24c-7.488 0-10.24 0.608-10.24 2.304 0 4.8-9.12 19.36-17.44 27.872-5.184 5.248-12.864 10.752-19.072 13.632-9.12 4.192-12.48 4.8-26.656 4.8-14.592 0.032-17.312-0.512-27.296-5.248-6.304-2.976-14.688-8.896-19.424-13.664-7.616-7.648-16.352-22.368-16.384-27.584-0.032-1.472-3.232-2.112-10.272-2.112h-10.24v117.76h167.264v-58.88zM402.624 352.512c19.936-10.176 24.8-35.456 10.048-52.288-7.36-8.352-14.24-11.488-25.248-11.488-17.184 0-30.016 10.944-33.152 28.256-2.368 13.216 5.408 29.024 17.44 35.36 8.448 4.448 22.336 4.512 30.912 0.16zM651.904 352.448c15.68-8 22.784-29.472 14.976-45.248-2.656-5.312-10.144-12.832-15.776-15.776-6.624-3.488-22.432-3.488-29.024 0-19.808 10.368-25.504 36.032-11.68 52.48 9.856 11.712 28 15.424 41.504 8.544z" />
<glyph unicode="&#xe924;" glyph-name="box" d="M501.76 685.216c-2.336-1.76-44.576-26.624-93.856-55.232s-92.864-53.952-96.864-56.352l-7.264-4.352 0.416-121.472 0.448-121.472 97.28-56.928c53.504-31.328 100.16-58.496 103.68-60.384l6.4-3.456 6.4 3.456c3.52 1.888 50.176 29.056 103.68 60.384l97.28 56.928 0.448 121.472 0.416 121.472-7.264 4.352c-4 2.4-18.016 10.528-31.136 18.080-13.152 7.552-34.656 20.064-47.808 27.808-13.12 7.744-43.456 25.408-67.392 39.264s-44.736 26.24-46.24 27.52c-3.808 3.296-13.6 2.72-18.624-1.088zM545.792 633.664c16.256-9.44 28.928-17.792 28.16-18.496-1.6-1.568-153.536-90.272-156.576-91.424-3.008-1.152-64.64 35.328-62.784 37.184 4.832 4.832 156.928 91.776 159.104 90.944 1.408-0.544 15.84-8.736 32.096-18.208zM637.984 580c15.68-9.056 29.504-17.408 30.752-18.56 1.824-1.632-13.376-11.168-77.216-48.416l-79.488-46.4-31.552 18.368c-18.784 10.944-30.912 19.008-30.016 19.936 2.816 2.816 154.496 91.2 156.8 91.392 1.248 0.096 15.072-7.264 30.72-16.32zM374.624 509.408c17.824-10.528 35.872-21.088 40.096-23.456 25.184-14.208 77.984-45.376 79.808-47.136 1.664-1.6 2.048-21.952 1.696-94.4l-0.448-92.32-159.424 92.64-0.064 93.504c-0.064 88.544 0.096 93.408 2.912 91.904 1.632-0.896 17.568-10.208 35.424-20.736zM687.712 438.176l-0.064-93.44-77.792-45.216c-42.784-24.864-78.464-45.472-79.296-45.792-0.896-0.352-1.344 38.72-1.088 92.736l0.448 93.344 78.496 45.856c43.2 25.248 78.72 45.888 78.944 45.92s0.384-42.016 0.352-93.408z" />
<glyph unicode="&#xe925;" glyph-name="envelope" d="M328.288 639.136c-27.648-4.032-49.984-26.272-55.296-55.104-1.152-6.208-1.6-56.128-1.28-142.336l0.512-132.8 3.968-9.792c7.648-18.976 22.656-33.344 41.856-40.032 8.224-2.88 20.192-3.072 194.816-3.072h186.016l9.824 3.968c18.112 7.328 33.184 22.592 40.672 41.248 1.952 4.928 2.464 29.888 2.88 140.544 0.32 86.496-0.128 137.92-1.248 143.968-5.152 27.872-27.808 49.312-56.512 53.472-13.024 1.888-353.312 1.824-366.208-0.064zM693.408 606.848c3.584-0.832 9.12-3.296 12.288-5.472 5.44-3.744 12.8-14.24 12.8-18.272 0-2.304-203.040-139.264-206.496-139.264-3.36 0-206.496 136.896-206.496 139.168 0 6.784 13.664 21.184 21.792 22.976 2.56 0.576 5.408 1.28 6.368 1.6 4 1.344 353.888 0.608 359.744-0.736zM454.4 442.208l57.6-38.784 207.36 139.712 0.448-113.664 0.416-113.664-4.192-8.576c-5.216-10.656-14.848-17.344-27.168-18.784-4.8-0.576-87.872-0.832-184.544-0.544-161.6 0.48-176.224 0.768-181.088 3.424-7.52 4.128-15.552 13.856-17.632 21.376-1.184 4.192-1.792 45.664-1.792 118.752l-0.032 112.32 46.528-31.392c25.568-17.28 72.416-48.864 104.096-70.176z" />
<glyph unicode="&#xe926;" glyph-name="check" d="M335.36 687.424c-20.064-2.816-38.272-13.888-50.208-30.56-13.728-19.2-12.928-6.368-12.928-208.864 0-169.184 0.192-180.64 3.072-189.824 6.432-20.224 26.72-40.48 47.008-46.912 9.024-2.848 21.408-3.040 189.696-3.040 169.184 0 180.64 0.192 189.824 3.072 19.712 6.272 39.040 25.152 46.368 45.344 3.296 9.088 3.488 14.144 4.064 97.504 0.352 48.32 0.128 91.2-0.48 95.264-1.504 10.112-5.76 13.952-15.424 13.952-5.952 0-8.736-0.96-11.936-4.192l-4.192-4.192v-88.928c0-62.688-0.608-91.264-2.016-96.896-2.816-11.136-16.224-24.544-27.36-27.36-11.424-2.88-346.272-2.88-357.696 0-11.136 2.816-24.544 16.224-27.36 27.36-2.88 11.424-2.88 346.272 0 357.696 2.816 11.136 16.224 24.544 27.36 27.36 5.792 1.44 43.648 2.016 137.696 2.016 93.952 0 130.912 0.544 134.048 1.952 5.952 2.72 8.672 11.52 6.048 19.52-3.744 11.328 1.088 10.976-141.984 10.688-70.656-0.128-130.784-0.576-133.6-0.96zM620.832 523.552l-108.8-108.768-38.944 38.784c-36.288 36.192-39.328 38.816-45.056 38.816-4.896 0-7.2-1.248-11.424-6.048-2.944-3.36-5.312-7.936-5.312-10.368 0-3.36 11.104-15.712 49.728-55.392 27.36-28.096 50.208-51.072 50.784-51.072 1.6 0 234.848 234.048 238.048 238.88 4.096 6.208 3.424 11.136-2.528 17.888-4.224 4.832-6.528 6.048-11.488 6.048-5.888 0-11.040-4.864-115.008-108.768z" />
<glyph unicode="&#xe927;" glyph-name="download" d="M341.44 686.048c-6.048-1.344-15.264-4.512-20.48-7.040-12.544-6.080-33.888-27.392-39.936-39.904-9.632-19.872-9.6-19.328-9.6-191.104 0-175.168-0.224-171.2 11.168-192.864 10.816-20.608 30.432-36.352 54.56-43.776 9.568-2.976 19.808-3.136 174.848-3.136 181.632 0 171.552-0.576 193.632 10.624 12.064 6.112 30.016 24.64 36.672 37.824 10.432 20.64 10.272 18.016 10.272 191.328 0 171.776 0.032 171.232-9.6 191.104-6.048 12.48-27.392 33.824-39.872 39.872-16.768 8.128-30.784 9.952-71.904 9.344-33.344-0.48-37.28-0.832-40.48-3.744-7.328-6.656-6.144-22.272 2.048-26.368 2.272-1.152 19.2-2.048 43.808-2.368 39.296-0.48 40.32-0.576 49.76-4.992 12.256-5.76 22.752-16.224 28.512-28.512l4.512-9.632v-329.408l-4.416-9.376c-5.024-10.592-16.224-22.592-25.568-27.36-12.32-6.272-24.416-6.752-177.376-6.752s-165.056 0.48-177.376 6.752c-9.344 4.768-20.544 16.768-25.568 27.36l-4.416 9.376v329.408l4.512 9.632c5.76 12.288 16.256 22.752 28.512 28.512 9.44 4.416 10.464 4.512 49.76 4.992 24.608 0.32 41.536 1.216 43.808 2.368 8.192 4.096 9.376 19.712 2.048 26.368-3.232 2.912-7.008 3.232-42.208 3.552-28.352 0.256-41.568-0.288-49.632-2.080zM506.016 686.816c-2.816-0.832-6.080-2.848-7.232-4.448-1.664-2.272-2.144-30.592-2.144-128.16v-125.28l-52.992 51.776c-42.752 41.792-53.952 51.872-58.144 52.32-10.368 1.088-20.64-11.040-16.928-20 1.024-2.496 33.728-36.416 72.64-75.328l70.784-70.752 69.12 69.12c38.016 38.016 70.4 71.744 71.904 74.976 2.592 5.472 2.592 6.208-0.352 11.648-3.328 6.208-10.144 10.656-16.32 10.656-2.688 0-18.656-14.816-55.488-51.52l-51.68-51.52-0.48 123.616c-0.512 131.2-0.416 129.824-8.608 132.192-7.36 2.112-8.992 2.176-14.080 0.704z" />
<glyph unicode="&#xe928;" glyph-name="upload" d="M500.736 683.712c-11.52-8.576-130.112-128.8-132-133.888-3.712-9.888 8.128-23.328 18.368-20.8 2.912 0.704 23.264 19.744 56.192 52.608l51.648 51.456v-250.112l4.192-4.16c3.168-3.2 5.952-4.192 11.52-4.16 8.864 0.064 12.896 2.848 15.072 10.432 0.96 3.424 1.632 54.368 1.632 126.848v121.152l52.544-52.416c56.224-56.128 56.256-56.16 66.208-49.632 5.632 3.68 9.568 11.488 8.32 16.512-0.544 2.176-31.904 34.848-69.632 72.544-54.752 54.688-69.504 68.544-73.024 68.544-2.4 0-7.392-2.208-11.040-4.928zM342.176 471.648c-23.392-4.544-50.048-24.992-60.576-46.496-8.896-18.080-10.176-28.8-10.176-84.672 0-57.248 1.184-66.4 11.168-85.344 10.816-20.608 30.432-36.352 54.56-43.776 9.568-2.976 19.808-3.136 174.848-3.136s165.28 0.16 174.848 3.136c16.576 5.088 26.688 11.168 38.656 23.136 13.024 12.992 21.12 27.584 24.672 44.32 3.488 16.352 3.392 107.36-0.096 123.968-7.328 34.784-36.416 63.168-70.816 69.088-6.656 1.152-26.048 1.728-48.384 1.408l-37.248-0.544-4.128-4.768c-6.688-7.808-4.672-21.024 3.84-24.896 2.624-1.184 17.312-1.888 39.84-1.888 19.616 0 39.488-0.832 44.16-1.824 11.456-2.464 25.312-12.48 32.96-23.84 9.184-13.632 10.272-23.040 9.632-82.176-0.576-49.76-0.608-50.080-4.992-59.424-5.024-10.592-16.224-22.592-25.568-27.36-12.32-6.272-24.416-6.752-177.376-6.752s-165.056 0.48-177.376 6.752c-9.344 4.768-20.544 16.768-25.568 27.36-4.384 9.344-4.416 9.664-4.992 59.424-0.64 59.136 0.448 68.544 9.632 82.176 7.648 11.36 21.504 21.376 32.96 23.84 4.672 0.992 24.544 1.824 44.16 1.824 22.528 0 37.216 0.704 39.84 1.888 8.512 3.872 10.528 17.088 3.84 24.896l-4.128 4.768-39.808 0.288c-21.92 0.16-43.68-0.48-48.384-1.376z" />
<glyph unicode="&#xe929;" glyph-name="recycle" d="M484.032 686.944c-70.144-8.864-134.592-47.712-172.768-104.096l-7.488-11.072v39.552c0 39.040-0.032 39.648-4 44.224-5.312 6.176-18.048 6.656-23.808 0.896-3.744-3.712-3.744-4.128-3.744-67.84v-64.096l4.768-4.128 4.8-4.128 60.928 0.032c45.568 0.032 61.984 0.576 65.184 2.176 5.344 2.72 8.608 12.032 6.624 18.976-2.944 10.272-3.104 10.336-46.848 11.264l-40.096 0.832 8.864 13.376c28.992 43.68 78.816 77.44 130.304 88.288 56.704 11.904 116.448-0.032 164.224-32.832 16.992-11.648 41.632-36.224 52.8-52.608 17.216-25.312 30.016-55.808 34.624-82.656 3.040-17.76 6.784-23.008 16.32-23.072 7.072-0.032 13.248 3.424 15.872 8.928 1.888 3.904 1.792 7.072-0.512 19.584-5.856 31.52-20.288 66.592-38.624 93.792-11.264 16.64-38.016 44.32-55.872 57.696-27.424 20.576-66.368 37.664-101.088 44.288-17.248 3.296-54.208 4.672-70.464 2.624zM279.904 433.856c-7.84-3.968-9.088-9.568-5.984-26.4 5.856-31.52 20.288-66.592 38.624-93.792 11.264-16.64 38.016-44.32 55.872-57.696 27.552-20.672 65.888-37.44 102.048-44.608 22.528-4.448 65.792-4.032 88.8 0.864 63.328 13.472 119.296 50.272 153.472 100.928l7.488 11.072v-39.552c0-39.040 0.032-39.648 4-44.224 5.312-6.176 18.048-6.656 23.808-0.896 3.744 3.712 3.744 4.128 3.744 67.84v64.096l-4.768 4.128-4.8 4.128-60.928-0.032c-45.568-0.032-61.984-0.576-65.184-2.176-5.344-2.72-8.608-12.032-6.624-18.976 2.944-10.272 3.104-10.336 46.848-11.264l40.128-0.832-8.512-12.736c-20.288-30.432-48.48-54.848-82.912-71.808-35.776-17.632-73.28-24.64-111.584-20.8-72.736 7.264-135.744 50.4-168.896 115.648-8.192 16.096-16.064 39.488-18.944 56.128-2.176 12.672-4.192 17.664-8.48 20.96-3.552 2.72-11.84 2.72-17.216 0z" />
<glyph unicode="&#xe92a;" glyph-name="recycle-horizontal" d="M481.024 686.176c-69.792-10.048-132.384-49.024-169.984-105.92-18.272-27.616-32.48-63.776-37.28-94.912-4.8-31.008-2.752-31.392-22.016 3.936-9.408 17.184-18.784 32.96-20.832 35.104-4.864 4.96-12.064 4.896-19.456-0.128-5.184-3.52-5.792-4.736-5.664-11.52 0.128-6.432 4.288-15.072 27.872-57.92 15.264-27.68 29.632-52.064 31.968-54.176 7.552-6.848 3.616-8.512 79.968 33.536 20.64 11.392 38.976 22.4 40.704 24.48 5.856 7.072 1.056 21.664-8.256 25.152-4.992 1.856-10.24-0.448-43.808-19.040-16.672-9.216-30.816-16.768-31.456-16.768-1.6 0 0.8 25.824 3.712 39.84 25.44 121.984 150.976 195.36 270.368 158.016 18.016-5.632 47.552-21.056 63.552-33.152 8.192-6.208 20.096-17.152 26.432-24.352 24.128-27.232 25.344-27.904 36.448-20.416 7.744 5.216 9.856 11.456 6.336 18.784-4.064 8.544-35.808 40.896-52.384 53.408-17.28 13.056-52.96 31.072-73.568 37.184-33.664 9.952-72.032 13.248-102.656 8.864zM733.024 491.744c-56.512-30.56-92.64-51.2-95.328-54.4-5.856-7.040-1.056-21.664 8.256-25.152 4.992-1.856 10.24 0.448 43.808 19.040 16.672 9.216 30.816 16.768 31.424 16.768 2.368 0-1.504-30.656-6.24-49.504-6.080-24.064-20.832-55.104-35.488-74.56-20.064-26.624-46.144-47.68-78.016-62.976-22.848-10.976-45.408-17.12-72.096-19.584-40.128-3.744-73.824 2.688-112.064 21.44-23.008 11.264-44.832 27.552-60.128 44.832-24.128 27.232-25.344 27.904-36.448 20.416-7.744-5.216-9.856-11.456-6.336-18.784 4.064-8.576 35.808-40.896 52.384-53.408 16.544-12.48 48.832-29.152 69.312-35.808 81.952-26.592 169.92-8.48 235.52 48.512 40.896 35.552 70.432 88.928 78.656 142.080 4.8 31.008 2.752 31.392 22.016-3.936 9.408-17.184 18.784-32.96 20.832-35.104 4.864-4.96 12.064-4.896 19.456 0.128 5.184 3.52 5.792 4.736 5.664 11.52-0.128 6.432-4.288 15.072-27.872 57.92-15.264 27.68-29.632 52.064-31.968 54.176-5.92 5.376-9.76 4.832-25.344-3.616z" />
<glyph unicode="&#xe92b;" glyph-name="reload" d="M476.288 701.312c-84.672-13.696-157.92-74.976-188.512-157.728-10.592-28.736-18.176-65.216-14.816-71.456 2.88-5.44 8.832-8.768 15.648-8.768 9.888 0 13.184 4 16.128 19.616 4.288 22.656 7.68 35.008 14.688 53.152 24.48 63.584 78.752 112.384 144.288 129.824 14.592 3.872 20.256 4.448 44.864 4.576 29.568 0.16 38.176-1.024 62.304-8.576 73.504-23.072 130.56-91.008 145.28-172.992 3.52-19.616 3.936-60.064 0.8-78.496-20.736-121.888-124.672-201.952-238.272-183.52-58.432 9.472-112.416 47.584-144.32 101.888-3.68 6.272-6.688 11.84-6.688 12.384s22.464 0.96 49.92 0.992c51.584 0 61.344 1.024 64.416 6.752 3.264 6.112 2.080 17.888-2.208 21.92-3.872 3.648-4.48 3.68-80.96 3.776-84.672 0.128-82.848 0.352-85.792-10.272-2.304-8.256-2.208-152.544 0.096-160.832 2.112-7.648 5.664-9.856 15.904-9.856 6.24 0 8.32 0.832 11.2 4.512 3.392 4.32 3.52 6.496 3.616 61.024 0.096 44.384 0.544 55.808 2.144 53.312 18.592-29.28 45.12-58.336 69.44-76.096 18.016-13.152 50.496-29.248 70.848-35.104 34.4-9.856 78.592-11.904 110.080-5.056 85.408 18.592 153.728 81.344 181.696 166.912 11.296 34.592 15.776 71.36 12.8 105.28-3.168 36.384-10.88 64.64-26.304 96.416-34.144 70.4-92.64 117.088-168.064 134.144-20.32 4.608-59.008 5.696-80.224 2.272z" />
<glyph unicode="&#xe92c;" glyph-name="time" d="M496.64 687.584c-42.304-3.392-84.256-17.856-119.040-40.992-18.272-12.16-43.584-36.32-57.792-55.136-21.152-28.032-39.072-70.752-45.152-107.616-2.72-16.448-2.72-55.232 0-71.68 15.744-95.36 83.712-170.976 176.064-195.904 55.648-15.040 116.32-8.704 169.056 17.632 43.040 21.504 81.568 59.168 103.552 101.216 37.92 72.544 37.92 153.248 0 225.792-34.080 65.184-101.184 112.864-174.624 124.096-13.952 2.144-41.056 3.488-52.064 2.592zM532.736 654.432c78.688-8.032 145.28-59.104 173.824-133.344 16.928-44.032 16.928-102.144 0-146.176-21.344-55.52-65.952-100.128-121.472-121.472-44.032-16.928-102.144-16.928-146.176 0-55.52 21.344-100.128 65.952-121.472 121.472-17.024 44.32-17.024 101.856 0 146.176 28.096 73.12 95.328 125.344 171.52 133.248 19.808 2.080 24.192 2.080 43.776 0.096zM500.352 584c-3.68-3.936-3.712-4.448-3.712-73.888v-69.952l41.376-41.056c22.784-22.592 43.104-41.472 45.152-41.984 9.024-2.208 21.92 10.688 19.712 19.712-0.512 2.048-17.312 20.256-37.28 40.448l-36.352 36.704-0.512 62.56-0.512 62.592-4.16 4.416c-5.664 6.048-18.24 6.272-23.712 0.448z" />
<glyph unicode="&#xe92d;" glyph-name="alarm" d="M343.744 656.64c-32.064-23.328-44.384-33.248-45.504-36.608-3.52-10.752 10.208-24.928 19.872-20.512 5.376 2.432 82.976 58.816 86.688 62.976 5.312 5.92 4.608 13.92-1.856 20.832-8.864 9.504-10.496 8.768-59.2-26.688zM621.056 683.328c-6.464-6.912-7.168-14.912-1.856-20.832 3.712-4.16 81.312-60.544 86.688-62.976 9.664-4.416 23.392 9.76 19.872 20.512-1.12 3.36-13.44 13.28-45.504 36.608-48.704 35.456-50.336 36.192-59.2 26.688zM478.016 624.448c-80.608-13.504-147.072-74.016-168.384-153.248-17.152-63.872-2.464-133.056 39.136-184.48 66.688-82.464 181.792-102.496 272.8-47.488 66.752 40.352 107.008 120.672 98.944 197.408-5.152 49.12-24.512 91.232-57.792 125.824-47.872 49.728-117.792 73.184-184.704 61.984zM556.576 589.152c64.288-16.864 115.168-69.888 128.928-134.336 4.864-22.784 4.096-58.912-1.76-81.056-8.128-30.816-22.016-55.552-44.256-78.784-37.984-39.712-90.496-59.072-145.12-53.504-43.232 4.384-80 22.304-109.856 53.504-22.24 23.232-36.16 48-44.256 78.784-5.856 22.24-6.656 58.4-1.792 81.056 9.024 41.984 35.84 82.432 71.168 107.36 21.792 15.392 40.064 23.296 67.392 29.248 21.92 4.736 56.608 3.744 79.552-2.272zM501.152 514.432l-4.512-3.52v-108.992h79.616l3.936 4.192c2.72 2.88 3.968 6.272 3.968 10.784 0 14.496-6.016 17.44-35.712 17.44h-19.040l-0.608 37.696-0.576 37.696-4.8 4.128c-6.144 5.28-16 5.536-22.272 0.576z" />
<glyph unicode="&#xe92e;" glyph-name="play" d="M375.456 448v-252.544l22.912 14.048c272.288 167.296 386.592 237.792 386.592 238.496s-114.304 71.2-386.592 238.496l-22.912 14.048v-252.544zM572.288 541.856c83.2-51.136 151.232-93.376 151.232-93.856 0-0.64-277.088-171.744-309.024-190.816l-6.592-3.936v389.504l6.592-3.936c3.616-2.176 74.624-45.792 157.792-96.96z" />
<glyph unicode="&#xe92f;" glyph-name="pause" d="M345.6 687.52c-1.888-0.448-6.24-1.568-9.728-2.464-9.792-2.496-24.352-16.864-28.576-28.128-3.456-9.248-3.52-11.872-3.52-208.928s0.064-199.68 3.52-208.928c4.288-11.424 18.592-25.408 29.44-28.672 4.928-1.504 19.648-2.176 47.264-2.176s42.336 0.672 47.264 2.176c10.848 3.264 25.152 17.248 29.44 28.672 3.456 9.248 3.52 11.872 3.52 208.928s-0.064 199.68-3.52 208.928c-4.096 10.944-18.4 25.248-28.576 28.512-6.336 2.048-79.616 3.808-86.528 2.080zM601.6 687.52c-1.888-0.448-6.24-1.568-9.728-2.464-9.792-2.496-24.352-16.864-28.576-28.128-3.456-9.248-3.52-11.872-3.52-208.928s0.064-199.68 3.52-208.928c4.288-11.424 18.592-25.408 29.44-28.672 4.928-1.504 19.648-2.176 47.264-2.176s42.336 0.672 47.264 2.176c10.848 3.264 25.152 17.248 29.44 28.672 3.456 9.248 3.52 11.872 3.52 208.928s-0.064 199.68-3.52 208.928c-4.096 10.944-18.4 25.248-28.576 28.512-6.336 2.048-79.616 3.808-86.528 2.080zM421.344 654.336c11.040-3.872 10.432 7.968 10.432-206.336s0.608-202.464-10.432-206.336c-7.104-2.464-67.456-2.496-74.528-0.032-11.328 3.936-10.592-10.4-10.56 206.72 0.032 183.808 0.224 197.024 2.976 200.544 1.632 2.048 4.864 4.512 7.232 5.44 5.984 2.336 68.128 2.336 74.88 0zM677.344 654.336c11.040-3.872 10.432 7.968 10.432-206.336s0.608-202.464-10.432-206.336c-7.104-2.464-67.456-2.496-74.528-0.032-11.328 3.936-10.592-10.4-10.56 206.72 0.032 183.808 0.224 197.024 2.976 200.544 1.632 2.048 4.864 4.512 7.232 5.44 5.984 2.336 68.128 2.336 74.88 0z" />
<glyph unicode="&#xe930;" glyph-name="circle" d="M496.64 687.584c-42.304-3.392-84.256-17.856-119.040-40.992-18.272-12.16-43.584-36.32-57.792-55.136-21.152-28.032-39.072-70.752-45.152-107.616-2.72-16.448-2.72-55.232 0-71.68 15.744-95.36 83.712-170.976 176.064-195.904 55.648-15.040 116.32-8.704 169.056 17.632 43.040 21.504 81.568 59.168 103.552 101.216 37.92 72.544 37.92 153.248 0 225.792-34.080 65.184-101.184 112.864-174.624 124.096-13.952 2.144-41.056 3.488-52.064 2.592zM532.736 654.432c78.688-8.032 145.28-59.104 173.824-133.344 16.928-44.032 16.928-102.144 0-146.176-21.344-55.52-65.952-100.128-121.472-121.472-44.032-16.928-102.144-16.928-146.176 0-55.52 21.344-100.128 65.952-121.472 121.472-17.024 44.32-17.024 101.856 0 146.176 28.096 73.12 95.328 125.344 171.52 133.248 19.808 2.080 24.192 2.080 43.776 0.096z" />
<glyph unicode="&#xe931;" glyph-name="prev" d="M276.992 655.52l-4.768-4.128-0.48-199.104c-0.288-130.272 0.16-201.344 1.28-205.536 2.912-10.784 18.368-14.4 26.56-6.176l4.192 4.16v406.528l-4.192 4.16c-5.696 5.728-15.968 5.76-22.592 0.096zM723.616 655.456c-3.296-2.272-79.296-46.848-168.96-99.008-89.632-52.16-164.704-96.8-166.816-99.168-5.28-5.984-5.152-15.072 0.288-20.032 2.272-2.048 69.984-42.144 150.496-89.088 199.744-116.416 191.488-111.776 198.72-111.776 8.128 0 13.088 4.832 14.4 14.048 0.576 4 0.832 95.84 0.544 204.128l-0.512 196.832-4.768 4.128c-6.4 5.472-15.52 5.472-23.392-0.064zM719.52 281.184c-0.896-0.896-286.048 165.216-285.984 166.624 0.032 0.576 64.352 38.464 142.944 84.224l142.88 83.168 0.448-166.656c0.224-91.648 0.096-166.976-0.288-167.36z" />
<glyph unicode="&#xe932;" glyph-name="next" d="M276.992 655.52l-4.768-4.128-0.512-196.832c-0.288-108.288-0.032-200.128 0.544-204.128 2.304-16.16 13.248-18.208 34.144-6.304 62.464 35.552 326.24 190.176 329.472 193.12 5.44 4.96 5.568 14.048 0.288 20.032-2.112 2.368-77.184 47.008-166.816 99.168-89.664 52.192-165.728 96.736-169.056 99.040-8 5.472-16.928 5.472-23.296 0.032zM724.416 655.424l-4.192-4.16v-406.528l4.192-4.16c5.696-5.728 15.968-5.76 22.592-0.096l4.768 4.128v406.784l-4.768 4.128c-6.624 5.664-16.896 5.632-22.592-0.096zM457.056 526.496c73.344-42.688 133.408-78.112 133.408-78.688 0.032-1.024-283.936-167.072-285.728-167.072-0.512 0-0.96 75.328-0.96 167.36v167.36l9.952-5.664c5.472-3.104 69.984-40.576 143.328-83.296z" />
<glyph unicode="&#xe933;" glyph-name="square" d="M334.944 686.048c-22.048-4.8-44-21.696-54.144-41.664-9.44-18.624-9.376-17.696-9.376-196.384 0-180.96-0.128-178.368 10.304-197.952 6.528-12.256 21.536-26.976 33.888-33.248 18.624-9.44 17.696-9.376 196.384-9.376 134.976 0 166.72 0.416 176 2.4 31.136 6.592 55.552 30.944 62.144 61.92 3.616 17.152 3.616 335.36 0 352.512-4.864 22.816-21.408 44.64-41.76 54.944-18.656 9.44-17.536 9.376-197.248 9.28-132.576-0.096-167.648-0.576-176.192-2.432zM691.36 651.744c9.984-4.64 19.744-14.4 24.384-24.384 3.616-7.84 3.616-8.128 3.616-179.36s0-171.52-3.616-179.36c-4.64-9.984-14.4-19.744-24.384-24.384-7.84-3.616-8.128-3.616-179.36-3.616s-171.52 0-179.36 3.616c-9.984 4.64-19.744 14.4-24.384 24.384-3.584 7.808-3.616 8.736-4.096 174.208-0.32 113.824 0.128 169.152 1.376 175.2 3.552 17.088 16.864 31.2 33.728 35.808 6.304 1.696 44.096 2.112 176.16 1.824 167.392-0.32 168.128-0.32 175.936-3.936z" />
<glyph unicode="&#xe934;" glyph-name="next-next" d="M280.544 627.36c-2.944-1.792-6.208-5.728-7.264-8.8-2.528-7.264-2.72-332.288-0.192-341.376 2.816-10.176 15.68-13.44 24.928-6.304 8.896 6.88 184 160.288 189.664 166.176 7.296 7.584 7.296 13.6 0 21.568-7.2 7.936-183.552 162.176-191.744 167.744-7.52 5.088-8.544 5.152-15.392 0.992zM539.808 627.328c-3.744-2.336-6.016-5.472-7.264-10.176-1.248-4.64-1.696-59.264-1.376-174.304l0.448-167.52 4.8-4.128c6.112-5.248 14.464-5.376 20.992-0.288 14.624 11.328 193.28 168.864 194.176 171.2 2.272 5.952 0.8 10.848-5.344 17.472-3.52 3.776-46.72 42.016-96 84.96-49.28 42.912-91.136 79.424-93.024 81.088-5.504 4.864-11.296 5.44-17.408 1.696zM642.144 508.864c37.312-32.704 67.84-60.096 67.84-60.864 0-1.12-51.968-47.2-141.216-125.184l-5.568-4.864v260.096l5.568-4.864c3.072-2.688 36.096-31.616 73.376-64.32zM378.784 512.32c39.456-34.56 71.776-63.488 71.776-64.32 0-1.536-142.272-126.688-145.184-127.712-0.96-0.352-1.6 48.832-1.6 127.712s0.64 128.064 1.6 127.712c0.896-0.32 33.92-28.832 73.408-63.392z" />
<glyph unicode="&#xe935;" glyph-name="prev-prev" d="M471.904 628.96c-4.16-1.728-187.136-161.536-195.008-170.24-5.344-5.984-6.688-10.88-4.48-16.608 0.896-2.336 179.552-159.872 194.176-171.2 6.528-5.088 14.88-4.96 20.992 0.288l4.8 4.128 0.448 167.52c0.32 115.040-0.128 169.664-1.376 174.304-1.248 4.704-3.488 7.808-7.264 10.112-5.984 3.648-7.232 3.84-12.288 1.696zM728.064 626.368c-8.224-5.6-184.544-159.808-191.744-167.712-3.52-3.904-5.536-7.872-5.536-10.976 0-3.168 1.92-6.848 5.536-10.624 5.664-5.888 180.768-159.296 189.664-166.176 6.56-5.056 14.912-4.928 21.024 0.32l4.768 4.128 0.512 167.84c0.384 118.816-0.032 169.696-1.376 174.304-1.248 4.288-3.712 7.616-7.328 9.792-6.976 4.256-7.968 4.224-15.52-0.896zM460.384 383.296l-0.448-64.704-72.512 63.616c-39.904 35.008-72.544 64.608-72.544 65.792s32.64 30.784 72.544 65.792l72.512 63.616 0.448-64.704c0.256-35.584 0.256-93.824 0-129.408zM719.808 383.392l-0.448-64.608-72.544 63.52c-39.872 34.912-72.512 64.48-72.512 65.696s32.64 30.784 72.512 65.696l72.544 63.52 0.448-64.608c0.256-35.552 0.256-93.664 0-129.216z" />
<glyph unicode="&#xe936;" glyph-name="image" d="M355.872 686.848c-21.504-3.68-39.968-13.6-55.744-30.016-12.16-12.64-17.344-21.056-23.232-37.696l-4.672-13.28v-315.712l4.736-13.472c5.856-16.544 13.504-28.32 26.368-40.576 12.768-12.16 21.28-17.44 37.536-23.2l13.28-4.672h315.712l13.28 4.672c16.256 5.76 24.768 11.040 37.536 23.2 12.864 12.256 20.512 24.032 26.368 40.576l4.736 13.472v315.712l-4.736 13.472c-5.856 16.544-13.504 28.32-26.368 40.576-12.768 12.16-21.28 17.44-37.536 23.2l-13.28 4.672-152.736 0.256c-84 0.16-156.576-0.384-161.248-1.184zM663.648 654.432c14.208-2.304 25.344-8.096 36-18.784 10.688-10.656 16.48-21.792 18.784-36 1.056-6.496 1.76-48.064 1.76-103.648l0.032-92.8-18.112 17.44c-20.864 20.096-29.696 26.176-44.8 30.848-12.992 4-23.424 4.224-36.736 0.768-13.728-3.584-23.616-9.792-39.072-24.544l-13.248-12.672-41.344 40.928c-34.88 34.496-43.104 41.792-52.448 46.368-22.176 10.848-42.688 10.848-64.864 0-9.504-4.64-17.92-12.192-58.464-52.384l-47.36-46.944 0.032 92.896c0 55.648 0.704 97.248 1.76 103.744 2.304 14.208 8.096 25.344 18.784 36 10.208 10.208 21.984 16.576 34.432 18.656 13.12 2.208 291.456 2.304 304.864 0.128zM584.448 571.808c-4.512-4.512-5.76-15.264-2.496-21.376 2.208-4.128 12.352-7.424 18.624-6.048 7.552 1.664 10.976 6.56 10.976 15.68 0 6.528-0.832 8.672-4.64 11.936-6.464 5.568-16.8 5.472-22.464-0.192zM457.376 475.168c5.76-2.624 26.752-22.496 83.776-79.328 70.816-70.592 76.48-75.84 81.92-75.808 10.496 0.064 19.968 11.52 16.704 20.256-0.896 2.464-12.416 15.264-25.6 28.512l-23.936 24.032 12.192 11.264c14.688 13.632 23.744 18.304 35.136 18.272 14.688-0.064 21.376-4.64 53.216-36.288l29.44-29.248-0.032-24.832c0-41.408-3.936-55.040-20.544-71.648-10.656-10.688-21.792-16.48-36-18.784-14.752-2.4-288.544-2.4-303.296 0-14.208 2.304-25.344 8.096-36 18.784-16.608 16.608-20.544 30.24-20.544 71.616l-0.032 24.736 57.6 57.536c61.248 61.152 65.344 64.416 80.64 64.416 4.224 0 11.136-1.568 15.36-3.488z" />
<glyph unicode="&#xe937;" glyph-name="image-dots" d="M343.584 686.112c-5.792-1.28-13.856-3.808-17.92-5.632-17.952-8.096-38.144-28.256-46.112-46.080-7.712-17.184-8.128-24.288-8.16-135.2 0-63.776 0.672-109.312 1.76-116.064 4.992-31.648 31.648-62.112 62.688-71.68 10.624-3.296 16.192-3.392 176.16-3.392s165.536 0.096 176.16 3.392c31.52 9.728 57.728 40.096 62.784 72.8 1.216 7.744 1.664 49.216 1.312 120.96-0.512 107.52-0.576 109.344-4.288 120.288-8.96 26.304-32.096 49.44-58.464 58.496l-11.104 3.776-162.144 0.32c-131.2 0.256-164.128-0.128-172.672-1.984zM684.576 650.848c13.504-6.304 22.752-15.328 29.216-28.48l5.568-11.296 0.512-74.176 0.544-74.176-28.128 27.456c-33.696 32.896-42.848 38.496-64.512 39.488-24.896 1.152-37.472-5.728-69.632-38.048l-21.28-21.376-36.864 36.608c-29.728 29.536-38.72 37.472-46.432 40.992-13.6 6.24-27.808 8.448-39.104 6.080-20.096-4.16-25.216-7.968-68.032-50.56-22.144-21.984-40.832-40-41.536-40-0.736 0-1.056 33.216-0.768 73.824l0.512 73.792 4.512 9.6c8.224 17.536 23.808 30.368 41.088 33.856 4.032 0.8 78.72 1.344 166.016 1.184l158.72-0.256 9.6-4.512zM575.808 609.536c-3.808-3.264-4.64-5.408-4.64-11.904 0-9.472 3.616-14.272 11.936-15.808 6.688-1.28 15.328 1.76 17.696 6.24 1.856 3.456 2.208 13.536 0.608 17.728-1.472 3.744-9.632 7.744-15.84 7.744-2.912 0-7.136-1.728-9.76-4zM438.624 519.52c5.632-2.528 22.112-17.888 61.856-57.536 50.528-50.432 54.656-54.112 60.768-54.592 5.696-0.448 7.264 0.288 11.936 5.6 7.808 8.896 7.104 12.992-4.416 25.056l-9.792 10.272 22.144 21.664c12.224 11.904 24.992 22.944 28.416 24.576 7.744 3.648 20.032 3.776 28.384 0.288 4.064-1.696 20.128-16.32 44.48-40.544l38.144-37.888-0.96-16.768c-0.704-12.512-1.984-19.008-4.992-25.6-4.96-10.816-16.608-22.752-27.808-28.448l-8.384-4.256h-332.8l-8.384 4.256c-11.2 5.696-22.848 17.632-27.808 28.448-3.008 6.592-4.288 13.088-4.992 25.6l-0.96 16.768 50.080 49.824c52.032 51.776 58.336 56.768 71.424 56.768 3.296 0 9.44-1.568 13.664-3.488zM403.264 237.728c-9.952-4.8-8.384-23.552 2.336-28.032 6.912-2.88 16.576-0.992 20.32 3.968 4 5.28 3.072 17.12-1.728 21.92-4.576 4.576-13.92 5.536-20.928 2.144zM500.832 235.584c-3.104-3.072-4.192-6.016-4.192-11.2 0-9.664 2.336-13.184 10.208-15.296 13.536-3.648 23.584 5.664 20.96 19.424-2.080 10.88-18.816 15.264-26.976 7.072zM599.808 235.584c-5.664-5.664-5.76-15.968-0.192-22.432 3.296-3.84 5.408-4.64 11.936-4.64 5.248 0 9.088 1.024 11.328 3.072 4.416 4 6.112 13.28 3.552 19.488-3.872 9.344-19.2 11.936-26.624 4.512z" />
<glyph unicode="&#xe938;" glyph-name="print" d="M426.304 686.944c-28.192-4.928-50.176-27.904-54.336-56.768-0.864-5.856-1.568-28.896-1.6-51.2l-0.032-40.512-21.76-0.032c-23.712-0.032-33.056-1.952-44.672-9.28-17.28-10.912-27.872-27.232-31.072-47.904-1.056-6.592-1.504-33.696-1.12-66.144 0.608-52.032 0.864-55.52 4.448-64.576 4.992-12.544 13.856-23.744 24.768-31.232 13.216-9.088 22.4-11.2 48.512-11.232h22.624v-22.624c0.032-26.112 2.144-35.296 11.232-48.512 7.456-10.848 18.624-19.744 31.232-24.832 9.536-3.872 10.048-3.872 97.472-3.872s87.936 0 97.472 3.872c12.608 5.088 23.776 13.984 31.232 24.832 9.056 13.216 11.2 22.432 11.232 48.352v22.464l26.048 0.576c23.744 0.544 26.848 0.96 35.424 4.992 11.712 5.504 25.6 18.816 31.168 29.888 7.168 14.208 8.064 23.104 8.064 80.064 0 33.184-0.736 57.024-1.92 62.624-2.784 13.12-9.152 24.64-18.88 34.112-15.424 15.008-25.984 18.4-57.28 18.432l-22.624 0.032v47.36c-0.032 52.992-0.8 58.048-11.232 73.248-7.456 10.88-18.656 19.744-31.232 24.8-9.44 3.808-10.784 3.872-92.352 4.16-45.536 0.16-86.4-0.32-90.816-1.088zM602.272 651.936c3.2-1.856 8.192-6.368 11.104-9.952l5.28-6.56 1.024-96.96h-217.152l0.544 46.496c0.608 50.816 0.736 51.52 11.296 61.568 10.048 9.568 10.944 9.632 100.192 9.216 78.464-0.352 82.176-0.512 87.712-3.808zM699.2 504.224c6.816-2.592 14.112-9.888 17.792-17.824 2.848-6.208 3.136-11.936 3.136-63.136 0-62.144-0.32-64.384-11.232-74.56-7.488-7.008-12.736-8.224-35.584-8.224h-21.056l-0.576 25.184c-0.544 22.816-1.024 26.048-5.024 34.592-8.832 18.88-27.872 33.536-48.416 37.344-13.632 2.528-158.848 2.528-172.48 0-20.544-3.808-39.584-18.464-48.416-37.344-4.032-8.544-4.48-11.776-5.024-34.72l-0.576-25.312-23.584 0.544c-23.488 0.576-23.616 0.576-30.144 5.856-13.472 10.912-13.312 10.016-13.888 72.704-0.544 60.736 0.032 66.048 8.256 75.392 10.528 12.032-3.712 11.232 199.072 11.264 125.184 0.032 184.448-0.544 187.744-1.76zM599.904 403.872c8.608-3.936 17.44-13.824 18.752-21.12 0.576-3.072 0.8-31.808 0.512-63.872l-0.512-58.304-5.28-6.56c-2.912-3.584-7.904-8.096-11.104-9.952-5.568-3.296-8.864-3.424-90.272-3.424s-84.704 0.128-90.272 3.424c-3.2 1.856-8.192 6.368-11.104 9.952l-5.28 6.56-0.512 58.304c-0.288 32.064-0.064 60.8 0.512 63.872 1.312 7.296 10.144 17.184 18.752 21.12 6.304 2.848 13.12 3.104 87.904 3.104s81.6-0.256 87.904-3.104z" />
<glyph unicode="&#xe939;" glyph-name="fingerprint" d="M479.808 686.816c-97.12-10.912-173.184-83.552-190.112-181.504-2.912-16.864-2.816-110.656 0.128-134.112 5.088-40.224 15.456-89.792 21.856-104.416 3.552-8.064 10.048-11.040 18.24-8.32 7.232 2.368 11.84 7.232 11.84 12.48 0 2.176-2.752 15.072-6.144 28.64-11.808 47.392-16.48 88.384-16.448 143.968 0.064 56.384 3.744 77.152 19.52 109.408 10.752 22.048 21.28 36.448 38.656 52.896 15.36 14.528 27.488 22.72 48.128 32.48 20.32 9.6 36.736 14.048 60.512 16.352 33.92 3.328 63.712-2.080 95.776-17.344 22.72-10.816 27.872-10.816 33.472 0.064 6.016 11.616 2.24 18.080-15.904 27.168-37.312 18.72-80.064 26.656-119.52 22.24zM667.968 587.2c-6.24-2.72-10.912-8.704-10.912-13.984 0-2.080 2.752-8.928 6.080-15.232 18.688-35.2 21.696-50.112 22.080-109.984 0.352-56.48 2.88-70.88 17.664-100.16 5.856-11.648 10.592-15.904 17.664-15.904 6.016 0 16.736 9.248 16.736 14.464 0 2.112-3.072 10.368-6.784 18.336-11.616 24.736-12.704 31.872-12.896 84.128-0.128 28.544-0.992 50.272-2.304 57.152-7.296 38.56-29.024 83.936-40 83.584-1.12-0.064-4.416-1.12-7.328-2.4zM476.16 585.28c-32.544-6.976-66.912-35.68-79.904-66.752-8.48-20.224-11.616-48.736-6.24-56.416 2.88-4.128 12.128-6.528 18.688-4.896 6.592 1.664 9.472 7.904 11.136 24.064 4.416 42.688 39.136 74.24 81.728 74.24 25.056 0 43.712-7.808 60.128-25.12 20-21.12 22.048-27.488 23.776-74.016 0.736-20.224 2.656-44.416 4.224-53.76 3.552-20.896 13.44-51.552 22.72-70.336 7.616-15.392 23.52-40.672 29.184-46.304 5.216-5.248 14.144-4.672 20.832 1.312 7.872 7.008 7.328 12.928-2.464 27.264-18.976 27.776-32.544 59.904-37.92 89.92-1.536 8.448-3.424 32.256-4.224 52.896-0.8 20.672-2.272 40.8-3.296 44.736-10.048 39.424-46.88 74.88-86.432 83.264-14.656 3.104-37.248 3.072-51.936-0.096zM495.104 487.104c-8.32-3.328-8.576-4.8-8.64-48.832-0.064-45.312 2.176-68.896 9.568-100.352 8.512-36.096 26.464-78.432 46.528-109.664 14.176-22.112 20.64-25.28 31.68-15.584 8.704 7.616 8.192 13.12-2.752 29.888-17.472 26.752-33.76 63.2-42.208 94.496-7.456 27.584-9.088 42.304-10.24 92.16-1.184 51.84-1.728 55.040-9.824 58.112-5.184 1.984-8.736 1.92-14.112-0.224zM398.496 388.736c-7.104-1.696-11.072-7.424-11.072-15.936 0-27.52 16.256-88.864 35.296-133.024 12.672-29.408 16.32-33.664 26.976-31.68 6.976 1.312 14.528 8.608 14.528 14.048 0 2.272-4.288 13.472-9.536 24.928-16.8 36.736-27.712 73.824-33.984 115.52-1.408 9.472-3.52 18.72-4.672 20.544-1.824 2.944-10.208 7.2-13.088 6.624-0.576-0.096-2.56-0.544-4.448-1.024z" />
<glyph unicode="&#xe93a;" glyph-name="unity" d="M482.496 674.272c-31.648-17.536-37.056-21.664-37.056-28.16 0-5.984 5.856-15.136 11.2-17.568 3.872-1.76 6.048-1.152 18.336 5.088 7.712 3.904 19.168 9.952 25.504 13.504l11.52 6.4 11.52-6.4c6.336-3.552 17.792-9.6 25.504-13.504 12.288-6.24 14.464-6.848 18.336-5.088 5.056 2.304 11.2 11.488 11.2 16.768 0 6.88-6.88 12.288-36.64 28.608-16.416 9.024-30.080 16.384-30.304 16.32-0.256-0.032-13.376-7.232-29.12-15.968zM360.096 603.264c-2.336-0.64-14.848-7.040-27.776-14.208s-23.968-13.056-24.48-13.056c-0.544 0-3.2-1.6-5.92-3.52l-4.96-3.552v-77.76l4.192-4.512c7.36-7.936 23.040-5.28 26.432 4.512 0.992 2.816 1.792 13.088 1.792 22.784 0 9.728 0.416 17.664 0.928 17.664 0.48 0 6.432-3.136 13.216-7.008 16.064-9.152 23.36-10.24 29.184-4.416 5.024 4.992 7.008 11.328 5.472 17.408-1.056 4.256-5.792 7.872-22.976 17.472l-9.184 5.152 12.128 6.368c6.656 3.488 14.048 8.16 16.416 10.368 5.792 5.344 5.824 14.048 0.064 20.896-4.832 5.76-8.416 7.072-14.528 5.408zM657.056 603.776c-8.544-3.040-14.208-15.456-10.656-23.264 0.96-2.080 8.384-7.52 16.544-12.096l14.816-8.32-9.056-5.088c-17.088-9.536-21.824-13.152-22.88-17.408-1.536-6.080 0.448-12.416 5.472-17.408 5.824-5.824 13.12-4.736 29.184 4.416 6.784 3.872 12.64 7.008 13.056 7.008 0.384 0 0.992-9.28 1.312-20.608 0.608-20.16 0.736-20.736 5.408-24.768 6.624-5.664 16.864-5.632 22.592 0.096l4.192 4.16v79.584l-30.304 16.416c-31.68 17.152-35.488 18.784-39.68 17.28zM451.68 487.904c-5.6-5.6-7.52-14.688-4.16-19.776 1.344-2.048 12.768-9.536 25.376-16.672l22.88-12.96 0.864-30.656c0.48-16.864 1.44-31.584 2.144-32.672 0.736-1.12 4-2.88 7.264-3.968 7.424-2.464 16.96 0.256 20 5.696 1.344 2.368 2.336 14.176 2.72 33.056l0.64 29.344 22.048 12.16c12.16 6.688 23.296 14.016 24.768 16.288 3.744 5.696 1.856 14.304-4.416 20.288-6.752 6.496-10.56 5.536-37.728-9.44l-21.92-12.064-23.616 12.928c-12.96 7.104-25.568 12.928-28 12.928-2.464 0-6.368-1.952-8.864-4.48zM301.152 409.664l-4.192-4.16 0.032-39.776 0.032-39.744 31.008-16.928c18.88-10.304 32.928-16.928 35.904-16.928 6.848 0 13.28 6.912 14.432 15.552 1.216 9.088-1.44 11.52-28.192 25.984l-20.512 11.072-0.576 30.464-0.544 30.432-4.8 4.128c-6.624 5.664-16.864 5.632-22.592-0.096zM701.952 411.84c-2.048-0.992-4.32-3.072-5.056-4.576-0.704-1.536-1.728-16.192-2.208-32.544l-0.928-29.76-22.176-12.544c-12.224-6.912-23.168-13.824-24.32-15.36-5.248-6.912-0.64-20.736 8.064-24.352 6.464-2.688 7.776-2.144 44.416 18.496l26.432 14.912 0.48 39.328 0.448 39.328-4.224 4.544c-4.576 4.928-13.664 6.016-20.928 2.528zM507.2 301.12c-9.312-1.984-10.432-5.088-10.496-28.608-0.032-11.584-0.672-20.8-1.376-20.48-0.736 0.288-8.736 4.352-17.76 9.024-14.688 7.584-16.864 8.256-20.864 6.432-5.408-2.464-11.264-11.584-11.264-17.568 0-6.528 6.304-11.328 37.952-28.736l28.576-15.712 29.952 16.544c30.016 16.576 36.64 21.792 36.64 28.832 0 5.376-6.976 15.072-12.192 16.896-3.68 1.312-7.136 0.128-20.864-7.104l-16.448-8.64-0.192 16.512c-0.288 24.032-2.336 30.048-10.976 32.448-2.752 0.736-7.584 0.832-10.688 0.16z" />
<glyph unicode="&#xe93b;" glyph-name="volume-up" d="M456.544 659.264c-2.816-1.024-7.2-3.296-9.728-5.056s-24.288-28.544-48.352-59.488l-43.744-56.256-25.024-0.032c-22.656 0-25.888-0.384-33.6-4-9.92-4.608-18.272-13.408-21.568-22.72-3.328-9.44-3.328-117.984 0-127.424 3.296-9.312 11.648-18.112 21.568-22.72 7.712-3.616 10.944-4 33.568-4l25.024-0.032 44.096-56.576c24.256-31.136 46.016-58.016 48.352-59.68 16.768-12.096 42.080-5.696 51.936 13.12 3.52 6.656 3.552 8.416 4.032 190.176 0.384 140.896 0 185.248-1.6 191.104-5.024 18.304-27.136 29.888-44.96 23.584zM647.456 637.472c-5.056-2.048-10.88-10.752-10.88-16.256 0-3.552 4.16-8.736 18.72-23.296 20.736-20.672 33.664-38.752 45.216-63.104 18.24-38.528 23.872-85.568 15.264-127.488-8.768-42.624-27.072-75.616-60.544-109.184-20.672-20.736-21.984-23.776-14.432-33.664 5.152-6.752 11.232-8.544 17.696-5.216 7.808 4.032 30.432 26.112 42.016 40.992 34.688 44.512 51.072 92.032 51.008 147.744-0.064 49.792-13.152 92.576-41.152 134.784-15.2 22.88-49.728 56.704-57.44 56.256-0.992-0.064-3.456-0.768-5.472-1.568zM470.176 448c0-158.72-0.288-180.064-2.56-180.384-1.536-0.224-19.52 21.696-46.080 56.192-23.936 31.104-45.568 58.72-48.064 61.376l-4.576 4.8h-29.44c-24.992 0-29.888 0.416-32.544 2.816-2.912 2.624-3.136 6.624-3.136 54.912 0 46.048 0.352 52.448 2.848 55.2 2.528 2.784 5.92 3.104 33.12 3.104h30.304l47.52 61.376c28.96 37.408 48.512 61.216 50.048 60.992 2.272-0.32 2.56-21.664 2.56-180.384zM577.344 561.024c-5.088-3.968-8.992-13.92-7.264-18.496 0.736-1.984 5.952-7.584 11.584-12.48 39.36-34.208 49.056-91.968 22.976-136.608-3.584-6.080-12.864-17.344-20.8-25.152-15.904-15.68-17.344-19.776-10.4-29.504 7.648-10.752 16.224-9.056 32.608 6.368 20.352 19.2 33.856 41.024 41.152 66.496 5.28 18.464 5.216 51.488-0.16 71.328-8.256 30.432-24.48 55.36-48.576 74.496-9.088 7.232-15.104 8.256-21.12 3.552z" />
<glyph unicode="&#xe93c;" glyph-name="volume-down" d="M509.6 686.656c-10.72-2.368-17.344-7.584-28.736-22.56-5.888-7.744-28.352-36.832-49.92-64.672l-39.264-50.592-27.68-0.064c-23.36-0.064-29.088-0.608-36.768-3.488-10.624-3.968-20.096-13.024-25.024-23.904-3.296-7.296-3.456-10.976-3.456-73.376 0-62.432 0.16-66.080 3.456-73.376 4.672-10.336 12.576-18.368 22.912-23.232 7.904-3.744 10.624-4.064 36.992-4.064l28.416-0.032 47.328-60.992c26.048-33.568 49.344-63.2 51.776-65.888 15.264-16.64 42.944-16.192 57.408 0.96 9.856 11.68 9.344-0.832 9.344 225.76 0 227.648 0.544 214.112-9.376 227.104-7.36 9.664-24.32 15.296-37.408 12.416zM521.888 654.176c1.568-1.568 2.048-49.92 2.048-207.2 0-188.576-0.224-205.216-2.784-206.208-1.536-0.576-4.032-0.608-5.568-0.096-2.752 0.992-93.056 116.288-100.768 128.704-2.304 3.68-5.984 7.52-8.192 8.544-2.4 1.088-16.992 1.824-36.352 1.824-30.080 0-32.608 0.224-35.776 3.392-3.264 3.296-3.392 5.696-3.392 64.8 0 60.928 0 61.408 3.712 64.864 3.52 3.232 5.92 3.456 37.984 3.52l34.24 0.064 54.368 69.92c29.888 38.464 55.264 69.92 56.384 69.92s2.976-0.928 4.096-2.048zM641.888 571.68c-9.12-10.4-7.904-13.664 12.416-33.696 15.808-15.552 18.56-19.2 25.472-33.664 9.536-20.032 13.12-35.776 13.12-57.664 0-36.704-13.472-65.824-43.296-93.504-11.104-10.304-13.024-12.896-13.024-17.664 0-4.096 1.568-7.168 5.824-11.392 9.696-9.696 16.736-7.264 36.608 12.608 20.256 20.256 33.792 43.808 41.536 72.16 5.632 20.704 5.632 57.568 0 78.272-7.776 28.512-21.536 52.384-41.632 72.288-20.288 20.064-27.936 22.592-37.024 12.256z" />
<glyph unicode="&#xe93d;" glyph-name="mute" d="M467.2 670.944c-3.488-1.312-8.224-3.584-10.496-5.088-2.272-1.472-24.896-29.504-50.304-62.272l-46.208-59.616-27.776-0.672c-31.456-0.768-39.040-3.040-49.248-14.656-11.008-12.544-10.944-12.096-10.944-79.776 0-70.208 0.288-72 13.568-84.256 10.688-9.824 20.224-12.192 49.472-12.192h24.032l46.592-60.16c41.248-53.216 47.648-60.704 55.456-64.992 7.84-4.32 10.080-4.768 19.712-4.032 14.048 1.088 22.944 7.008 29.6 19.776l4.768 9.12-0.032 193.92c0 130.080-0.576 196.064-1.792 200.384-5.024 18.176-29.152 30.912-46.4 24.512zM482.144 448v-192h-3.68c-2.816 0-14.528 14.048-49.888 59.744-25.408 32.832-48.064 61.824-50.336 64.416l-4.096 4.704h-31.776c-29.472 0-32 0.224-35.168 3.392-3.264 3.296-3.424 5.696-3.424 58.976v55.552l4.192 4.16c4.16 4.16 4.576 4.192 35.168 4.192h30.976l4.512 4.96c2.496 2.72 25.248 31.872 50.592 64.8 35.616 46.208 46.88 59.744 49.504 59.456 3.392-0.352 3.424-1.6 3.424-192.352zM625.312 516.352c-5.504-2.304-10.912-10.176-10.912-15.968 0-4.352 3.68-8.864 23.424-28.8l23.392-23.648-23.392-23.456c-20.032-20.032-23.424-24.224-23.424-28.736 0-10.976 11.872-19.328 21.44-15.136 2.752 1.216 14.208 11.488 25.472 22.848 11.232 11.36 21.248 20.64 22.208 20.64s11.36-9.664 23.072-21.472c11.712-11.808 23.040-22.144 25.152-22.976 8.096-3.232 20.896 6.56 20.896 16 0 4.32-3.712 8.896-23.392 28.736l-23.392 23.616 23.392 23.616c24.992 25.216 26.56 28 20.576 37.12-3.68 5.632-11.488 9.568-16.512 8.32-2.176-0.576-13.888-10.944-26.016-23.104-12.096-12.128-22.784-22.048-23.744-22.048-0.928 0-11.68 9.92-23.904 22.080-22.144 22.016-27.2 25.312-34.336 22.368z" />
<glyph unicode="&#xe93e;" glyph-name="fire" d="M464.608 685.216c-8.768-5.344-9.76-10.304-4.48-22.752 11.616-27.424 16.32-54.016 14.048-79.456-1.376-15.328-3.872-24.832-10.432-39.424l-4.96-11.104-3.072 11.968c-4.16 16.096-10.24 30.688-17.664 42.304-7.392 11.552-12.448 13.6-21.44 8.704-5.344-2.88-7.008-5.664-14.72-24.576-11.008-26.944-23.2-51.168-35.68-70.816-24.896-39.264-35.104-72.512-35.104-114.144 0-65.856 43.008-133.472 102.656-161.408 53.312-24.96 119.552-21.728 170.4 8.352 45.504 26.944 78.56 74.752 87.232 126.208 2.88 17.024 2.464 50.016-0.864 65.888-4.576 21.952-14.368 48.16-19.552 52.224-8.384 6.592-21.152 0.896-24.192-10.816-5.408-20.704-6.24-22.88-7.232-18.368-0.512 2.336-1.824 12.128-2.88 21.728-3.2 28.48-14.72 67.392-27.584 92.992-19.168 38.080-53.664 76.512-91.104 101.44-15.584 10.368-41.376 24.48-44.768 24.48-1.664 0-5.536-1.536-8.608-3.424zM519.936 623.008c63.488-50.784 95.616-135.584 85.76-226.208-1.632-15.2-1.536-17.664 0.992-21.536 3.392-5.184 11.904-9.12 16.928-7.808 4.928 1.28 20.288 17.6 28.896 30.656l7.104 10.816 1.408-6.496c1.76-8 0.128-31.744-3.232-46.592-10.176-45.312-43.040-84.832-86.080-103.456-20.256-8.8-33.568-11.36-59.712-11.584-26.848-0.192-43.264 2.912-62.88 11.936-31.648 14.528-54.752 38.464-71.968 74.464-9.728 20.352-13.632 37.312-13.632 59.456 0 36.48 7.136 58.496 32.704 101.024 8.608 14.304 18.336 31.776 21.6 38.816l5.984 12.8 2.304-9.376c1.248-5.152 2.784-17.44 3.392-27.296 1.088-17.312 1.312-18.112 6.656-23.488 9.184-9.216 16.256-6.912 30.624 10.016 18.912 22.304 32.064 49.024 37.6 76.48 2.24 11.008 2.72 19.84 2.080 38.368-0.448 13.216-1.408 25.408-2.080 27.040-2.208 5.152 1.344 3.328 15.552-8.032z" />
<glyph unicode="&#xe93f;" glyph-name="electric" d="M526.496 683.936c-2.592-2.56-49.536-66.496-104.288-142.080-89.856-123.968-99.584-138.016-99.616-143.904-0.032-9.024 2.368-12.672 9.792-14.72 3.904-1.088 32.064-1.792 72.512-1.792h66.144v-80.288c0-87.104 0.032-87.52 9.344-91.744 7.040-3.232 11.84-2.432 16.8 2.752 2.528 2.656 49.504 66.592 104.384 142.080 90.112 123.968 99.776 137.92 99.84 143.808 0.064 9.024-2.368 12.672-9.792 14.72-3.904 1.088-32.096 1.792-72.544 1.792h-66.176l0.096 81.28c0.096 88.608 0.224 87.424-9.632 91.168-7.168 2.72-11.936 1.856-16.864-3.072zM522.752 488.768c3.040-6.112 8.672-6.624 70.528-6.624 33.376 0 60.416-0.64 60.096-1.408s-33.984-47.392-74.816-103.584l-74.24-102.176-0.864 64.768c-0.448 35.584-1.472 65.984-2.208 67.488-3.040 6.112-8.672 6.624-70.528 6.624-33.376 0-60.416 0.64-60.096 1.44 0.32 0.768 33.984 47.36 74.816 103.552l74.24 102.176 0.864-64.768c0.448-35.584 1.472-65.984 2.208-67.488z" />
<glyph unicode="&#xe940;" glyph-name="turn-on" d="M506.016 686.816c-2.816-0.832-6.080-2.848-7.232-4.448-1.664-2.272-2.144-29.888-2.144-124.704v-121.76l4.192-4.192c3.072-3.072 6.016-4.192 11.168-4.192 9.792 0 14.72 5.28 16.16 17.28 0.608 5.024 0.864 59.488 0.576 120.96-0.544 118.592-0.512 118.016-8.64 120.352-7.36 2.112-8.992 2.176-14.080 0.704zM363.968 629.792c-7.744-3.392-33.92-30.272-45.696-46.976-18.688-26.528-32.128-57.92-39.52-92.192-4.384-20.32-4.416-69.888-0.032-90.4 3.84-18.144 13.6-47.136 20.384-60.608 21.76-43.264 58.016-80.384 100.768-103.232 86.464-46.208 189.248-35.616 264.288 27.2 42.496 35.584 69.024 80.352 81.12 136.832 4.32 20.256 4.32 69.952 0 90.24-3.84 18.144-13.6 47.136-20.384 60.608-16 31.808-51.008 73.28-66.944 79.328-8.416 3.2-19.648-6.592-19.648-17.088 0-2.272 6.496-10.368 17.536-21.856 44.352-46.080 62.912-93.728 60.448-155.232-2.272-55.872-23.040-101.728-63.392-139.936-62.56-59.2-154.048-73.216-230.688-35.328-61.92 30.624-102.848 86.528-113.44 154.912-3.136 20.192-1.088 59.424 4.16 79.936 9.472 37.024 25.856 65.248 56.032 96.448 10.656 11.008 16.736 18.656 16.736 20.992 0 5.888-4.736 13.472-10.176 16.288-5.888 3.040-4.704 3.040-11.552 0.064z" />
</font>
</defs>
</svg>
